M.F.A. (2017)

1h 35min | Thriller | 13 October 2017 (USA)

An art student taps into a rich source of creative inspiration after the accidental slaughter of her rapist. An unlikely vigilante emerges, set out to avenge college girls whose attackers walked free- all the while fueling a vivid thesis exhibition.

Watch trailer

Media information

General
Format : Matroska
Format version : Version 4 / Version 2
File size : 676 MiB
Duration : 1 h 32 min
Overall bit rate : 1 026 kb/s
Movie name : M.F.A.2017.720p.BrRip.2CH.x265.HEVC
Encoded date : UTC 2018-01-10 11:06:04
Writing application : mkvmerge v19.0.0 (‘Brave Captain’) 32-bit
Writing library : libebml v1.3.5 + libmatroska v1.4.8

Video
ID : 1
Format : HEVC
Format/Info : High Efficiency Video Coding
Format profile : [email protected]@Main
Codec ID : V_MPEGH/ISO/HEVC
Duration : 1 h 32 min
Bit rate : 959 kb/s
Width : 1 280 pixels
Height : 688 pixels
Display aspect ratio : 1.85:1
Frame rate mode : Constant
Frame rate : 23.976 (24000/1001) FPS
Color space : YUV
Chroma subsampling : 4:2:0
Bit depth : 8 bits
Bits/(Pixel*Frame) : 0.045
Stream size : 632 MiB (93%)
Default : Yes
Forced : No

Audio
ID : 2
Format : AAC
Format/Info : Advanced Audio Codec
Format profile : HE-AAC / LC
Format settings : Explicit
Codec ID : A_AAC-2
Duration : 1 h 32 min
Bit rate : 66.2 kb/s
Channel(s) : 2 channels
Channel positions : Front: L R
Sampling rate : 48.0 kHz / 24.0 kHz
Frame rate : 23.438 FPS (1024 SPF)
Compression mode : Lossy
Delay relative to video : 23 ms
Stream size : 42.9 MiB (6%)
Default : Yes
Forced : No

Text #1
ID : 3
Format : UTF-8
Codec ID : S_TEXT/UTF8
Codec ID/Info : UTF-8 Plain Text
Duration : 1 h 31 min
Bit rate : 45 b/s
Count of elements : 1004
Stream size : 30.7 KiB (0%)
Title : ENG
Language : English
Default : Yes
Forced : No

Text #2
ID : 4
Format : UTF-8
Codec ID : S_TEXT/UTF8
Codec ID/Info : UTF-8 Plain Text
Duration : 1 h 31 min
Bit rate : 51 b/s
Count of elements : 1205
Stream size : 34.4 KiB (0%)
Title : ENG SDH
Language : English
Default : No
Forced : No

[collapse]
Download Link(s)

Download

Direct download files get automatically deleted after a month or so. Posted on : 01/10/2018

[collapse]
Magnet Link

 

Magnet

Source : M.F.A.2017.1080p.BluRay.x264-PSYCHD- 6.56 GB

[collapse]

Media information

General
Format : Matroska
Format version : Version 4 / Version 2
File size : 614 MiB
Duration : 1 h 32 min
Overall bit rate : 932 kb/s
Movie name : M.F.A.2017.720p.WEB-DL.2CH.x265
Encoded date : UTC 2017-10-14 07:35:07
Writing application : mkvmerge v16.0.0 (‘Protest’) 32-bit
Writing library : libebml v1.3.5 + libmatroska v1.4.8

Video
ID : 1
Format : HEVC
Format/Info : High Efficiency Video Coding
Format profile : [email protected]@Main
Codec ID : V_MPEGH/ISO/HEVC
Duration : 1 h 32 min
Bit rate : 865 kb/s
Width : 1 280 pixels
Height : 688 pixels
Display aspect ratio : 1.85:1
Frame rate mode : Constant
Frame rate : 23.976 (24000/1001) FPS
Color space : YUV
Chroma subsampling : 4:2:0
Bit depth : 8 bits
Bits/(Pixel*Frame) : 0.041
Stream size : 570 MiB (93%)
Default : Yes
Forced : No

Audio
ID : 2
Format : AAC
Format/Info : Advanced Audio Codec
Format profile : HE-AAC / LC
Format settings : Explicit
Codec ID : A_AAC-2
Duration : 1 h 32 min
Bit rate : 66.2 kb/s
Channel(s) : 2 channels
Channel positions : Front: L R
Sampling rate : 48.0 kHz / 24.0 kHz
Frame rate : 23.438 FPS (1024 SPF)
Compression mode : Lossy
Delay relative to video : 23 ms
Stream size : 42.8 MiB (7%)
Default : Yes
Forced : No

Text
ID : 3
Format : UTF-8
Codec ID : S_TEXT/UTF8
Codec ID/Info : UTF-8 Plain Text
Duration : 1 h 31 min
Bit rate : 44 b/s
Count of elements : 987
Stream size : 29.8 KiB (0%)
Language : English
Default : Yes
Forced : No

[collapse]
Download Link(s)

[collapse]
Magnet Link

 

Magnet

M.F.A.2017.1080p.WEB-DL.AAC2.0.H264-FGT-3.42 GB

[collapse]

You may also like...

error: nah :p~