Maigret Sets a Trap (2016)

1h 27min | Crime, Drama, Mystery | TV Movie 28 March 2016

Chief Inspector Jules Maigret hunts for a serial killer.

Watch trailer

Media information

General
Format : Matroska
Format version : Version 4
File size : 595 MiB
Duration : 1 h 26 min
Overall bit rate : 961 kb/s
Movie name : Maigret.Sets.a.Trap.720p.10bit.BluRay.6CH.x265.HEVC
Encoded date : UTC 2018-10-07 15:51:12
Writing application : mkvmerge v27.0.0 (‘Metropolis’) 32-bit
Writing library : libebml v1.3.6 + libmatroska v1.4.9

Video
ID : 1
Format : HEVC
Format/Info : High Efficiency Video Coding
Format profile : Main [email protected]@Main
Codec ID : V_MPEGH/ISO/HEVC
Duration : 1 h 26 min
Bit rate : 755 kb/s
Width : 1 280 pixels
Height : 720 pixels
Display aspect ratio : 16:9
Frame rate mode : Constant
Frame rate : 25.000 FPS
Color space : YUV
Chroma subsampling : 4:2:0
Bit depth : 10 bits
Bits/(Pixel*Frame) : 0.033
Stream size : 467 MiB (79%)
Default : Yes
Forced : No
Color range : Limited
Color primaries : BT.709
Transfer characteristics : BT.709
Matrix coefficients : BT.709

Audio
ID : 2
Format : AAC LC SBR
Commercial name : HE-AAC
Format settings : Explicit
Codec ID : A_AAC-2
Duration : 1 h 26 min
Bit rate : 204 kb/s
Channel(s) : 6 channels
Channel layout : C L R Ls Rs LFE
Sampling rate : 48.0 kHz
Frame rate : 23.438 FPS (2048 SPF)
Compression mode : Lossy
Delay relative to video : 23 ms
Stream size : 126 MiB (21%)
Default : Yes
Forced : No

Text
ID : 3
Format : UTF-8
Codec ID : S_TEXT/UTF8
Codec ID/Info : UTF-8 Plain Text
Duration : 1 h 23 min
Bit rate : 52 b/s
Count of elements : 867
Stream size : 32.2 KiB (0%)
Language : English
Default : Yes
Forced : No

[collapse]
Download Link(s)

Download

[RE-UP]-Direct download files get automatically deleted after a month or so. Posted on : 10/07/2018

[collapse]
Magnet Link

Magnet

Source : Maigret.Sets.A.Trap.2016.1080p.BluRay.x264-SHORTBREHD-6.56 GB

[collapse]

You may also like...

error: nah :p~