Mail Order Monster (2018)

1h 29min | Drama, Family, Sci-Fi | 6 November 2018 (USA)

A girl seeks help and guidance from a robot monster to cope with the bullies at school and her father’s new girlfriend.

Watch trailer

Media information

General
Format : Matroska
Format version : Version 4
File size : 757 MiB
Duration : 1 h 29 min
Overall bit rate : 1 188 kb/s
Movie name : Mail.Order.Monster.2018.720p.WEB-DL.2CH.x265.HEVC
Encoded date : UTC 2018-11-28 21:32:47
Writing application : mkvmerge v28.2.0 (‘The Awakening’) 32-bit
Writing library : libebml v1.3.6 + libmatroska v1.4.9

Video
ID : 1
Format : HEVC
Format/Info : High Efficiency Video Coding
Format profile : [email protected]@Main
Codec ID : V_MPEGH/ISO/HEVC
Duration : 1 h 29 min
Bit rate : 1 113 kb/s
Width : 1 280 pixels
Height : 720 pixels
Display aspect ratio : 16:9
Frame rate mode : Constant
Frame rate : 23.976 (24000/1001) FPS
Color space : YUV
Chroma subsampling : 4:2:0
Bit depth : 8 bits
Bits/(Pixel*Frame) : 0.050
Stream size : 710 MiB (94%)
Default : Yes
Forced : No

Audio
ID : 2
Format : AAC LC SBR
Commercial name : HE-AAC
Format settings : Explicit
Codec ID : A_AAC-2
Duration : 1 h 29 min
Bit rate : 72.0 kb/s
Channel(s) : 2 channels
Channel layout : L R
Sampling rate : 48.0 kHz
Frame rate : 23.438 FPS (2048 SPF)
Compression mode : Lossy
Delay relative to video : 23 ms
Stream size : 46.5 MiB (6%)
Language : English
Default : Yes
Forced : No

Text
ID : 3
Format : UTF-8
Codec ID : S_TEXT/UTF8
Codec ID/Info : UTF-8 Plain Text
Duration : 1 h 25 min
Bit rate : 34 b/s
Count of elements : 1004
Stream size : 21.2 KiB (0%)
Language : English
Default : Yes
Forced : No

[collapse]
Download Link(s)

Download

Direct download files get automatically deleted after a month or so. Posted on : 11/28/2018

[collapse]
Magnet Link

Magnet

Mail.Order.Monster.2018.1080p.WEB-DL.DD5.1.H264-FGT-3.48 GB

[collapse]

You may also like...

error: nah :p~