Making the Witcher (2020)

32min | Documentary | TV Movie 27 August 2020

Go behind the monsters, the ballads, and every bit of magic that went into bringing The Witcher’s Continent to life.

Watch trailer

Media information

General
Format : Matroska
Format version : Version 4
File size : 483 MiB
Duration : 32 min 31 s
Overall bit rate : 2 075 kb/s
Movie name : Making.The.Witcher.2020.1080p.WEBRip.6CH.x265.HEVC

Video
ID : 1
Format : HEVC
Format/Info : High Efficiency Video Coding
Format profile : [email protected]@Main
Codec ID : V_MPEGH/ISO/HEVC
Duration : 32 min 31 s
Bit rate : 1 857 kb/s
Width : 1 920 pixels
Height : 960 pixels
Display aspect ratio : 2.000
Frame rate mode : Constant
Frame rate : 24.000 FPS
Color space : YUV
Chroma subsampling : 4:2:0
Bit depth : 8 bits
Bits/(Pixel*Frame) : 0.042
Stream size : 432 MiB (89%)
Default : Yes
Forced : No

Audio
ID : 2
Format : AAC LC SBR
Commercial name : HE-AAC
Format settings : Explicit
Codec ID : A_AAC-2
Duration : 32 min 30 s
Bit rate : 210 kb/s
Channel(s) : 6 channels
Channel layout : C L R Ls Rs LFE
Sampling rate : 48.0 kHz
Frame rate : 23.438 FPS (2048 SPF)
Compression mode : Lossy
Delay relative to video : 23 ms
Stream size : 48.9 MiB (10%)
Language : English
Default : Yes
Forced : No

Text #1
ID : 3
Format : UTF-8
Codec ID : S_TEXT/UTF8
Codec ID/Info : UTF-8 Plain Text
Duration : 32 min 14 s
Bit rate : 114 b/s
Count of elements : 600
Stream size : 27.1 KiB (0%)
Language : English
Default : Yes
Forced : No

Text #2
ID : 4
Format : UTF-8
Codec ID : S_TEXT/UTF8
Codec ID/Info : UTF-8 Plain Text
Duration : 32 min 9 s
Bit rate : 160 b/s
Count of elements : 530
Stream size : 37.8 KiB (0%)
Language : Arabic
Default : No
Forced : No

Text #3
ID : 5
Format : UTF-8
Codec ID : S_TEXT/UTF8
Codec ID/Info : UTF-8 Plain Text
Duration : 32 min 18 s
Bit rate : 97 b/s
Count of elements : 537
Stream size : 23.1 KiB (0%)
Language : Czech
Default : No
Forced : No

Text #4
ID : 6
Format : UTF-8
Codec ID : S_TEXT/UTF8
Codec ID/Info : UTF-8 Plain Text
Duration : 32 min 9 s
Bit rate : 107 b/s
Count of elements : 486
Stream size : 25.2 KiB (0%)
Language : Danish
Default : No
Forced : No

Text #5
ID : 7
Format : UTF-8
Codec ID : S_TEXT/UTF8
Codec ID/Info : UTF-8 Plain Text
Duration : 32 min 9 s
Bit rate : 102 b/s
Count of elements : 520
Stream size : 24.1 KiB (0%)
Language : German
Default : No
Forced : No

Text #6
ID : 8
Format : UTF-8
Codec ID : S_TEXT/UTF8
Codec ID/Info : UTF-8 Plain Text
Duration : 32 min 9 s
Bit rate : 174 b/s
Count of elements : 554
Stream size : 41.2 KiB (0%)
Language : Greek
Default : No
Forced : No

Text #7
ID : 9
Format : UTF-8
Codec ID : S_TEXT/UTF8
Codec ID/Info : UTF-8 Plain Text
Duration : 32 min 10 s
Bit rate : 96 b/s
Count of elements : 520
Stream size : 22.8 KiB (0%)
Title : Latin American
Language : Spanish
Default : No
Forced : No

Text #8
ID : 10
Format : UTF-8
Codec ID : S_TEXT/UTF8
Codec ID/Info : UTF-8 Plain Text
Duration : 32 min 9 s
Bit rate : 85 b/s
Count of elements : 533
Stream size : 20.2 KiB (0%)
Title : European
Language : Spanish
Default : No
Forced : No

Text #9
ID : 11
Format : UTF-8
Codec ID : S_TEXT/UTF8
Codec ID/Info : UTF-8 Plain Text
Duration : 32 min 9 s
Bit rate : 88 b/s
Count of elements : 440
Stream size : 20.8 KiB (0%)
Language : Finnish
Default : No
Forced : No

Text #10
ID : 12
Format : UTF-8
Codec ID : S_TEXT/UTF8
Codec ID/Info : UTF-8 Plain Text
Duration : 32 min 19 s
Bit rate : 116 b/s
Count of elements : 534
Stream size : 27.6 KiB (0%)
Language : French
Default : No
Forced : No

Text #11
ID : 13
Format : UTF-8
Codec ID : S_TEXT/UTF8
Codec ID/Info : UTF-8 Plain Text
Duration : 32 min 9 s
Bit rate : 149 b/s
Count of elements : 505
Stream size : 35.3 KiB (0%)
Language : Hebrew
Default : No
Forced : No

Text #12
ID : 14
Format : UTF-8
Codec ID : S_TEXT/UTF8
Codec ID/Info : UTF-8 Plain Text
Duration : 32 min 9 s
Bit rate : 82 b/s
Count of elements : 534
Stream size : 19.5 KiB (0%)
Language : Croatian
Default : No
Forced : No

Text #13
ID : 15
Format : UTF-8
Codec ID : S_TEXT/UTF8
Codec ID/Info : UTF-8 Plain Text
Duration : 32 min 19 s
Bit rate : 94 b/s
Count of elements : 533
Stream size : 22.3 KiB (0%)
Language : Hungarian
Default : No
Forced : No

Text #14
ID : 16
Format : UTF-8
Codec ID : S_TEXT/UTF8
Codec ID/Info : UTF-8 Plain Text
Duration : 32 min 9 s
Bit rate : 93 b/s
Count of elements : 533
Stream size : 22.0 KiB (0%)
Language : Indonesian
Default : No
Forced : No

Text #15
ID : 17
Format : UTF-8
Codec ID : S_TEXT/UTF8
Codec ID/Info : UTF-8 Plain Text
Duration : 32 min 19 s
Bit rate : 96 b/s
Count of elements : 501
Stream size : 22.8 KiB (0%)
Language : Italian
Default : No
Forced : No

Text #16
ID : 18
Format : UTF-8
Codec ID : S_TEXT/UTF8
Codec ID/Info : UTF-8 Plain Text
Duration : 32 min 18 s
Bit rate : 102 b/s
Count of elements : 523
Stream size : 24.3 KiB (0%)
Language : Japanese
Default : No
Forced : No

Text #17
ID : 19
Format : UTF-8
Codec ID : S_TEXT/UTF8
Codec ID/Info : UTF-8 Plain Text
Duration : 32 min 18 s
Bit rate : 124 b/s
Count of elements : 567
Stream size : 29.3 KiB (0%)
Language : Korean
Default : No
Forced : No

Text #18
ID : 20
Format : UTF-8
Codec ID : S_TEXT/UTF8
Codec ID/Info : UTF-8 Plain Text
Duration : 32 min 9 s
Bit rate : 89 b/s
Count of elements : 524
Stream size : 21.1 KiB (0%)
Language : Malay
Default : No
Forced : No

Text #19
ID : 21
Format : UTF-8
Codec ID : S_TEXT/UTF8
Codec ID/Info : UTF-8 Plain Text
Duration : 32 min 19 s
Bit rate : 93 b/s
Count of elements : 497
Stream size : 22.1 KiB (0%)
Language : Norwegian Bokmal
Default : No
Forced : No

Text #20
ID : 22
Format : UTF-8
Codec ID : S_TEXT/UTF8
Codec ID/Info : UTF-8 Plain Text
Duration : 32 min 18 s
Bit rate : 93 b/s
Count of elements : 526
Stream size : 22.1 KiB (0%)
Language : Dutch
Default : No
Forced : No

Text #21
ID : 23
Format : UTF-8
Codec ID : S_TEXT/UTF8
Codec ID/Info : UTF-8 Plain Text
Duration : 32 min 9 s
Bit rate : 88 b/s
Count of elements : 514
Stream size : 20.9 KiB (0%)
Language : Polish
Default : No
Forced : No

Text #22
ID : 24
Format : UTF-8
Codec ID : S_TEXT/UTF8
Codec ID/Info : UTF-8 Plain Text
Duration : 32 min 9 s
Bit rate : 104 b/s
Count of elements : 542
Stream size : 24.7 KiB (0%)
Title : European
Language : Portuguese
Default : No
Forced : No

Text #23
ID : 25
Format : UTF-8
Codec ID : S_TEXT/UTF8
Codec ID/Info : UTF-8 Plain Text
Duration : 32 min 19 s
Bit rate : 93 b/s
Count of elements : 534
Stream size : 22.2 KiB (0%)
Title : Brazilian
Language : Portuguese
Default : No
Forced : No

Text #24
ID : 26
Format : UTF-8
Codec ID : S_TEXT/UTF8
Codec ID/Info : UTF-8 Plain Text
Duration : 32 min 9 s
Bit rate : 106 b/s
Count of elements : 472
Stream size : 25.1 KiB (0%)
Language : Romanian
Default : No
Forced : No

Text #25
ID : 27
Format : UTF-8
Codec ID : S_TEXT/UTF8
Codec ID/Info : UTF-8 Plain Text
Duration : 32 min 19 s
Bit rate : 157 b/s
Count of elements : 508
Stream size : 37.3 KiB (0%)
Language : Russian
Default : No
Forced : No

Text #26
ID : 28
Format : UTF-8
Codec ID : S_TEXT/UTF8
Codec ID/Info : UTF-8 Plain Text
Duration : 32 min 19 s
Bit rate : 85 b/s
Count of elements : 530
Stream size : 20.3 KiB (0%)
Language : Swedish
Default : No
Forced : No

Text #27
ID : 29
Format : UTF-8
Codec ID : S_TEXT/UTF8
Codec ID/Info : UTF-8 Plain Text
Duration : 32 min 9 s
Bit rate : 265 b/s
Count of elements : 533
Stream size : 62.4 KiB (0%)
Language : Thai
Default : No
Forced : No

Text #28
ID : 30
Format : UTF-8
Codec ID : S_TEXT/UTF8
Codec ID/Info : UTF-8 Plain Text
Duration : 32 min 17 s
Bit rate : 94 b/s
Count of elements : 506
Stream size : 22.3 KiB (0%)
Language : Turkish
Default : No
Forced : No

Text #29
ID : 31
Format : UTF-8
Codec ID : S_TEXT/UTF8
Codec ID/Info : UTF-8 Plain Text
Duration : 32 min 9 s
Bit rate : 152 b/s
Count of elements : 529
Stream size : 35.9 KiB (0%)
Language : Vietnamese
Default : No
Forced : No

Text #30
ID : 32
Format : UTF-8
Codec ID : S_TEXT/UTF8
Codec ID/Info : UTF-8 Plain Text
Duration : 32 min 9 s
Bit rate : 98 b/s
Count of elements : 531
Stream size : 23.1 KiB (0%)
Title : Simplified
Language : Chinese
Default : No
Forced : No

Text #31
ID : 33
Format : UTF-8
Codec ID : S_TEXT/UTF8
Codec ID/Info : UTF-8 Plain Text
Duration : 32 min 9 s
Bit rate : 90 b/s
Count of elements : 533
Stream size : 21.4 KiB (0%)
Title : Traditional
Language : Chinese
Default : No
Forced : No

[collapse]
Download Link(s)

Download

Direct download files get automatically deleted after a month or so. Posted on : 08/31/2020

[collapse]
Magnet Link

Magnet

Making.The.Witcher.2020.1080p.NF.WEBRip.DD5.1.x264-NTG-1.42 GB

[collapse]

Media information

General
Format : Matroska
Format version : Version 4
File size : 205 MiB
Duration : 32 min 31 s
Overall bit rate : 880 kb/s
Movie name : Making.The.Witcher.2020.720p.WEBRip.2CH.x265.HEVC

Video
ID : 1
Format : HEVC
Format/Info : High Efficiency Video Coding
Format profile : [email protected]@Main
Codec ID : V_MPEGH/ISO/HEVC
Duration : 32 min 31 s
Bit rate : 805 kb/s
Width : 1 280 pixels
Height : 640 pixels
Display aspect ratio : 2.000
Frame rate mode : Constant
Frame rate : 24.000 FPS
Color space : YUV
Chroma subsampling : 4:2:0
Bit depth : 8 bits
Bits/(Pixel*Frame) : 0.041
Stream size : 187 MiB (91%)
Default : Yes
Forced : No

Audio
ID : 2
Format : AAC LC SBR
Commercial name : HE-AAC
Format settings : Explicit
Codec ID : A_AAC-2
Duration : 32 min 30 s
Bit rate : 67.8 kb/s
Channel(s) : 2 channels
Channel layout : L R
Sampling rate : 48.0 kHz
Frame rate : 23.438 FPS (2048 SPF)
Compression mode : Lossy
Delay relative to video : 23 ms
Stream size : 15.8 MiB (8%)
Language : English
Default : Yes
Forced : No

Text #1
ID : 3
Format : UTF-8
Codec ID : S_TEXT/UTF8
Codec ID/Info : UTF-8 Plain Text
Duration : 32 min 14 s
Bit rate : 114 b/s
Count of elements : 600
Stream size : 27.1 KiB (0%)
Language : English
Default : Yes
Forced : No

Text #2
ID : 4
Format : UTF-8
Codec ID : S_TEXT/UTF8
Codec ID/Info : UTF-8 Plain Text
Duration : 32 min 9 s
Bit rate : 160 b/s
Count of elements : 530
Stream size : 37.8 KiB (0%)
Language : Arabic
Default : No
Forced : No

Text #3
ID : 5
Format : UTF-8
Codec ID : S_TEXT/UTF8
Codec ID/Info : UTF-8 Plain Text
Duration : 32 min 18 s
Bit rate : 97 b/s
Count of elements : 537
Stream size : 23.1 KiB (0%)
Language : Czech
Default : No
Forced : No

Text #4
ID : 6
Format : UTF-8
Codec ID : S_TEXT/UTF8
Codec ID/Info : UTF-8 Plain Text
Duration : 32 min 9 s
Bit rate : 107 b/s
Count of elements : 486
Stream size : 25.2 KiB (0%)
Language : Danish
Default : No
Forced : No

Text #5
ID : 7
Format : UTF-8
Codec ID : S_TEXT/UTF8
Codec ID/Info : UTF-8 Plain Text
Duration : 32 min 9 s
Bit rate : 102 b/s
Count of elements : 520
Stream size : 24.1 KiB (0%)
Language : German
Default : No
Forced : No

Text #6
ID : 8
Format : UTF-8
Codec ID : S_TEXT/UTF8
Codec ID/Info : UTF-8 Plain Text
Duration : 32 min 9 s
Bit rate : 174 b/s
Count of elements : 554
Stream size : 41.2 KiB (0%)
Language : Greek
Default : No
Forced : No

Text #7
ID : 9
Format : UTF-8
Codec ID : S_TEXT/UTF8
Codec ID/Info : UTF-8 Plain Text
Duration : 32 min 10 s
Bit rate : 96 b/s
Count of elements : 520
Stream size : 22.8 KiB (0%)
Title : Latin American
Language : Spanish
Default : No
Forced : No

Text #8
ID : 10
Format : UTF-8
Codec ID : S_TEXT/UTF8
Codec ID/Info : UTF-8 Plain Text
Duration : 32 min 9 s
Bit rate : 85 b/s
Count of elements : 533
Stream size : 20.2 KiB (0%)
Title : European
Language : Spanish
Default : No
Forced : No

Text #9
ID : 11
Format : UTF-8
Codec ID : S_TEXT/UTF8
Codec ID/Info : UTF-8 Plain Text
Duration : 32 min 9 s
Bit rate : 88 b/s
Count of elements : 440
Stream size : 20.8 KiB (0%)
Language : Finnish
Default : No
Forced : No

Text #10
ID : 12
Format : UTF-8
Codec ID : S_TEXT/UTF8
Codec ID/Info : UTF-8 Plain Text
Duration : 32 min 19 s
Bit rate : 116 b/s
Count of elements : 534
Stream size : 27.6 KiB (0%)
Language : French
Default : No
Forced : No

Text #11
ID : 13
Format : UTF-8
Codec ID : S_TEXT/UTF8
Codec ID/Info : UTF-8 Plain Text
Duration : 32 min 9 s
Bit rate : 149 b/s
Count of elements : 505
Stream size : 35.3 KiB (0%)
Language : Hebrew
Default : No
Forced : No

Text #12
ID : 14
Format : UTF-8
Codec ID : S_TEXT/UTF8
Codec ID/Info : UTF-8 Plain Text
Duration : 32 min 9 s
Bit rate : 82 b/s
Count of elements : 534
Stream size : 19.5 KiB (0%)
Language : Croatian
Default : No
Forced : No

Text #13
ID : 15
Format : UTF-8
Codec ID : S_TEXT/UTF8
Codec ID/Info : UTF-8 Plain Text
Duration : 32 min 19 s
Bit rate : 94 b/s
Count of elements : 533
Stream size : 22.3 KiB (0%)
Language : Hungarian
Default : No
Forced : No

Text #14
ID : 16
Format : UTF-8
Codec ID : S_TEXT/UTF8
Codec ID/Info : UTF-8 Plain Text
Duration : 32 min 9 s
Bit rate : 93 b/s
Count of elements : 533
Stream size : 22.0 KiB (0%)
Language : Indonesian
Default : No
Forced : No

Text #15
ID : 17
Format : UTF-8
Codec ID : S_TEXT/UTF8
Codec ID/Info : UTF-8 Plain Text
Duration : 32 min 19 s
Bit rate : 96 b/s
Count of elements : 501
Stream size : 22.8 KiB (0%)
Language : Italian
Default : No
Forced : No

Text #16
ID : 18
Format : UTF-8
Codec ID : S_TEXT/UTF8
Codec ID/Info : UTF-8 Plain Text
Duration : 32 min 18 s
Bit rate : 102 b/s
Count of elements : 523
Stream size : 24.3 KiB (0%)
Language : Japanese
Default : No
Forced : No

Text #17
ID : 19
Format : UTF-8
Codec ID : S_TEXT/UTF8
Codec ID/Info : UTF-8 Plain Text
Duration : 32 min 18 s
Bit rate : 124 b/s
Count of elements : 567
Stream size : 29.3 KiB (0%)
Language : Korean
Default : No
Forced : No

Text #18
ID : 20
Format : UTF-8
Codec ID : S_TEXT/UTF8
Codec ID/Info : UTF-8 Plain Text
Duration : 32 min 9 s
Bit rate : 89 b/s
Count of elements : 524
Stream size : 21.1 KiB (0%)
Language : Malay
Default : No
Forced : No

Text #19
ID : 21
Format : UTF-8
Codec ID : S_TEXT/UTF8
Codec ID/Info : UTF-8 Plain Text
Duration : 32 min 19 s
Bit rate : 93 b/s
Count of elements : 497
Stream size : 22.1 KiB (0%)
Language : Norwegian Bokmal
Default : No
Forced : No

Text #20
ID : 22
Format : UTF-8
Codec ID : S_TEXT/UTF8
Codec ID/Info : UTF-8 Plain Text
Duration : 32 min 18 s
Bit rate : 93 b/s
Count of elements : 526
Stream size : 22.1 KiB (0%)
Language : Dutch
Default : No
Forced : No

Text #21
ID : 23
Format : UTF-8
Codec ID : S_TEXT/UTF8
Codec ID/Info : UTF-8 Plain Text
Duration : 32 min 9 s
Bit rate : 88 b/s
Count of elements : 514
Stream size : 20.9 KiB (0%)
Language : Polish
Default : No
Forced : No

Text #22
ID : 24
Format : UTF-8
Codec ID : S_TEXT/UTF8
Codec ID/Info : UTF-8 Plain Text
Duration : 32 min 9 s
Bit rate : 104 b/s
Count of elements : 542
Stream size : 24.7 KiB (0%)
Title : European
Language : Portuguese
Default : No
Forced : No

Text #23
ID : 25
Format : UTF-8
Codec ID : S_TEXT/UTF8
Codec ID/Info : UTF-8 Plain Text
Duration : 32 min 19 s
Bit rate : 93 b/s
Count of elements : 534
Stream size : 22.2 KiB (0%)
Title : Brazilian
Language : Portuguese
Default : No
Forced : No

Text #24
ID : 26
Format : UTF-8
Codec ID : S_TEXT/UTF8
Codec ID/Info : UTF-8 Plain Text
Duration : 32 min 9 s
Bit rate : 106 b/s
Count of elements : 472
Stream size : 25.1 KiB (0%)
Language : Romanian
Default : No
Forced : No

Text #25
ID : 27
Format : UTF-8
Codec ID : S_TEXT/UTF8
Codec ID/Info : UTF-8 Plain Text
Duration : 32 min 19 s
Bit rate : 157 b/s
Count of elements : 508
Stream size : 37.3 KiB (0%)
Language : Russian
Default : No
Forced : No

Text #26
ID : 28
Format : UTF-8
Codec ID : S_TEXT/UTF8
Codec ID/Info : UTF-8 Plain Text
Duration : 32 min 19 s
Bit rate : 85 b/s
Count of elements : 530
Stream size : 20.3 KiB (0%)
Language : Swedish
Default : No
Forced : No

Text #27
ID : 29
Format : UTF-8
Codec ID : S_TEXT/UTF8
Codec ID/Info : UTF-8 Plain Text
Duration : 32 min 9 s
Bit rate : 265 b/s
Count of elements : 533
Stream size : 62.4 KiB (0%)
Language : Thai
Default : No
Forced : No

Text #28
ID : 30
Format : UTF-8
Codec ID : S_TEXT/UTF8
Codec ID/Info : UTF-8 Plain Text
Duration : 32 min 17 s
Bit rate : 94 b/s
Count of elements : 506
Stream size : 22.3 KiB (0%)
Language : Turkish
Default : No
Forced : No

Text #29
ID : 31
Format : UTF-8
Codec ID : S_TEXT/UTF8
Codec ID/Info : UTF-8 Plain Text
Duration : 32 min 9 s
Bit rate : 152 b/s
Count of elements : 529
Stream size : 35.9 KiB (0%)
Language : Vietnamese
Default : No
Forced : No

Text #30
ID : 32
Format : UTF-8
Codec ID : S_TEXT/UTF8
Codec ID/Info : UTF-8 Plain Text
Duration : 32 min 9 s
Bit rate : 98 b/s
Count of elements : 531
Stream size : 23.1 KiB (0%)
Title : Simplified
Language : Chinese
Default : No
Forced : No

Text #31
ID : 33
Format : UTF-8
Codec ID : S_TEXT/UTF8
Codec ID/Info : UTF-8 Plain Text
Duration : 32 min 9 s
Bit rate : 90 b/s
Count of elements : 533
Stream size : 21.4 KiB (0%)
Title : Traditional
Language : Chinese
Default : No
Forced : No

[collapse]
Download Link(s)

Download

Direct download files get automatically deleted after a month or so. Posted on : 08/31/2020

[collapse]
Magnet Link

Magnet

Making.The.Witcher.2020.1080p.NF.WEBRip.DD5.1.x264-NTG-1.42 GB

[collapse]

You may also like...

error: nah :p~