Mamma Mia! Here We Go Again (2018)

PG-13 | 1h 54min | Comedy , Musical , Romance | 20 July 2018 (USA)

Five years after the events of Mamma Mia! (2008), Sophie prepares for the grand reopening of the Hotel Bella Donna as she learns more about her mother’s past.

Watch trailer

Media information

General
Format : Matroska
Format version : Version 4
File size : 903 MiB
Duration : 1 h 53 min
Overall bit rate : 1 111 kb/s
Movie name : Mamma.Mia.Here.We.Go.Again.2018.720p.WEB-DL.2CH.x264.AVC
Encoded date : UTC 2018-10-09 09:31:30
Writing application : mkvmerge v27.0.0 (‘Metropolis’) 32-bit
Writing library : libebml v1.3.6 + libmatroska v1.4.9

Video
ID : 3
Format : AVC
Format/Info : Advanced Video Codec
Format profile : [email protected]
Format settings : CABAC / 5 Ref Frames
Format settings, CABAC : Yes
Format settings, RefFrames : 5 frames
Codec ID : V_MPEG4/ISO/AVC
Duration : 1 h 53 min
Bit rate : 1 045 kb/s
Width : 1 280 pixels
Height : 532 pixels
Display aspect ratio : 2.40:1
Frame rate mode : Constant
Frame rate : 23.976 (24000/1001) FPS
Color space : YUV
Chroma subsampling : 4:2:0
Bit depth : 8 bits
Scan type : Progressive
Bits/(Pixel*Frame) : 0.064
Stream size : 849 MiB (94%)
Default : Yes
Forced : No
Color range : Limited
Color primaries : BT.709
Transfer characteristics : BT.709
Matrix coefficients : BT.709

Audio
ID : 1
Format : AAC LC SBR
Commercial name : HE-AAC
Format settings : Explicit
Codec ID : A_AAC-2
Duration : 1 h 53 min
Bit rate : 64.0 kb/s
Channel(s) : 2 channels
Channel layout : L R
Sampling rate : 48.0 kHz
Frame rate : 23.438 FPS (2048 SPF)
Compression mode : Lossy
Delay relative to video : 31 ms
Stream size : 52.0 MiB (6%)
Language : English
Default : Yes
Forced : No

Text
ID : 2
Format : UTF-8
Codec ID : S_TEXT/UTF8
Codec ID/Info : UTF-8 Plain Text
Duration : 1 h 52 min
Bit rate : 68 b/s
Count of elements : 1949
Stream size : 56.2 KiB (0%)
Language : English
Default : Yes
Forced : No

[collapse]
Download Link(s)

Download

Direct download files get automatically deleted after a month or so. Posted on : 10/09/2018

[collapse]
Magnet Link

Magnet

Source : Mamma.Mia.Here.We.Go.Again.2018.1080p.WEB-DL.DD5.1.H264-FGT-3.93 GB

[collapse]

You may also like...

error: nah :p~