Maria (2019)

1h 30min | Action, Crime, Drama | 27 March 2019 (Philippines)

When a former BlackRose cartel assassin deliberately betrays them by refusing to complete her mission, the cartel orders her execution. Unbeknownst to them, she fakes her own death and is able to create a new life of her own. When the cartel discovers she is alive, the hunter becomes the hunted as she fights to get revenge on those who took her new life away from her.

Watch trailer

Media information

General
Format : Matroska
Format version : Version 4
File size : 463 MiB
Duration : 1 h 29 min
Overall bit rate : 719 kb/s
Movie name : Maria.2019.720p.WEB-DL.2CH.x264.AVC
Encoded date : UTC 2019-05-21 23:04:41
Writing application : mkvmerge v34.0.0 (‘Sight and Seen’) 32-bit
Writing library : libebml v1.3.7 + libmatroska v1.5.0

Video
ID : 1
Format : AVC
Format/Info : Advanced Video Codec
Format profile : [email protected]
Format settings : CABAC / 5 Ref Frames
Format settings, CABAC : Yes
Format settings, Reference frames : 5 frames
Codec ID : V_MPEG4/ISO/AVC
Duration : 1 h 29 min
Bit rate : 650 kb/s
Width : 1 280 pixels
Height : 720 pixels
Display aspect ratio : 2.40:1
Frame rate mode : Constant
Frame rate : 23.976 (24000/1001) FPS
Color space : YUV
Chroma subsampling : 4:2:0
Bit depth : 8 bits
Scan type : Progressive
Bits/(Pixel*Frame) : 0.029
Stream size : 419 MiB (90%)
Default : Yes
Forced : No
Color range : Limited
Color primaries : BT.709
Transfer characteristics : BT.709
Matrix coefficients : BT.709

Audio
ID : 2
Format : AAC LC
Codec ID : A_AAC-2
Duration : 1 h 29 min
Bit rate : 64.4 kb/s
Channel(s) : 2 channels
Channel layout : L R
Sampling rate : 48.0 kHz
Frame rate : 46.875 FPS (1024 SPF)
Compression mode : Lossy
Delay relative to video : -21 ms
Stream size : 41.5 MiB (9%)
Title : Stereo
Default : Yes
Forced : No

Text #1
ID : 3
Format : ASS
Codec ID : S_TEXT/ASS
Duration : 1 h 28 min
Bit rate : 63 b/s
Count of elements : 791
Compression mode : Lossless
Stream size : 41.1 KiB (0%)
Language : English
Default : Yes
Forced : Yes

Text #2
ID : 4
Format : ASS
Codec ID : S_TEXT/ASS
Duration : 1 h 29 min
Bit rate : 71 b/s
Count of elements : 905
Compression mode : Lossless
Stream size : 46.5 KiB (0%)
Language : English
Default : No
Forced : No

Text #3
ID : 5
Format : ASS
Codec ID : S_TEXT/ASS
Duration : 1 h 19 min
Bit rate : 78 b/s
Count of elements : 682
Compression mode : Lossless
Stream size : 45.6 KiB (0%)
Language : Arabic
Default : No
Forced : No

Text #4
ID : 6
Format : ASS
Codec ID : S_TEXT/ASS
Duration : 1 h 19 min
Bit rate : 57 b/s
Count of elements : 676
Compression mode : Lossless
Stream size : 33.5 KiB (0%)
Language : German
Default : No
Forced : No

Text #5
ID : 7
Format : ASS
Codec ID : S_TEXT/ASS
Duration : 1 h 19 min
Bit rate : 58 b/s
Count of elements : 676
Compression mode : Lossless
Stream size : 33.9 KiB (0%)
Language : Spanish
Default : No
Forced : No

Text #6
ID : 8
Format : ASS
Codec ID : S_TEXT/ASS
Duration : 1 h 19 min
Bit rate : 59 b/s
Count of elements : 682
Compression mode : Lossless
Stream size : 34.7 KiB (0%)
Language : Spanish
Default : No
Forced : No

Text #7
ID : 9
Format : ASS
Codec ID : S_TEXT/ASS
Duration : 1 h 20 min
Bit rate : 61 b/s
Count of elements : 819
Compression mode : Lossless
Stream size : 36.2 KiB (0%)
Default : No
Forced : No

Text #8
ID : 10
Format : ASS
Codec ID : S_TEXT/ASS
Duration : 1 h 29 min
Bit rate : 77 b/s
Count of elements : 983
Compression mode : Lossless
Stream size : 50.5 KiB (0%)
Default : No
Forced : No

Text #9
ID : 11
Format : ASS
Codec ID : S_TEXT/ASS
Duration : 1 h 19 min
Bit rate : 60 b/s
Count of elements : 679
Compression mode : Lossless
Stream size : 34.9 KiB (0%)
Language : French
Default : No
Forced : No

Text #10
ID : 12
Format : ASS
Codec ID : S_TEXT/ASS
Duration : 1 h 19 min
Bit rate : 55 b/s
Count of elements : 683
Compression mode : Lossless
Stream size : 32.1 KiB (0%)
Default : No
Forced : No

Text #11
ID : 13
Format : ASS
Codec ID : S_TEXT/ASS
Duration : 1 h 19 min
Bit rate : 55 b/s
Count of elements : 654
Compression mode : Lossless
Stream size : 32.3 KiB (0%)
Language : Italian
Default : No
Forced : No

Text #12
ID : 14
Format : ASS
Codec ID : S_TEXT/ASS
Duration : 1 h 19 min
Bit rate : 59 b/s
Count of elements : 726
Compression mode : Lossless
Stream size : 34.7 KiB (0%)
Language : Japanese
Default : No
Forced : No

Text #13
ID : 15
Format : ASS
Codec ID : S_TEXT/ASS
Duration : 1 h 19 min
Bit rate : 67 b/s
Count of elements : 683
Compression mode : Lossless
Stream size : 39.1 KiB (0%)
Language : Korean
Default : No
Forced : No

Text #14
ID : 16
Format : ASS
Codec ID : S_TEXT/ASS
Duration : 1 h 20 min
Bit rate : 55 b/s
Count of elements : 640
Compression mode : Lossless
Stream size : 32.8 KiB (0%)
Language : Portuguese
Default : No
Forced : No

Text #15
ID : 17
Format : ASS
Codec ID : S_TEXT/ASS
Duration : 1 h 19 min
Bit rate : 56 b/s
Count of elements : 675
Compression mode : Lossless
Stream size : 33.0 KiB (0%)
Language : Portuguese
Default : No
Forced : No

Text #16
ID : 18
Format : ASS
Codec ID : S_TEXT/ASS
Duration : 1 h 19 min
Bit rate : 107 b/s
Count of elements : 682
Compression mode : Lossless
Stream size : 62.5 KiB (0%)
Language : Thai
Default : No
Forced : No

Text #17
ID : 19
Format : ASS
Codec ID : S_TEXT/ASS
Duration : 1 h 19 min
Bit rate : 73 b/s
Count of elements : 682
Compression mode : Lossless
Stream size : 42.9 KiB (0%)
Language : Vietnamese
Default : No
Forced : No

Text #18
ID : 20
Format : ASS
Codec ID : S_TEXT/ASS
Duration : 1 h 19 min
Bit rate : 59 b/s
Count of elements : 682
Compression mode : Lossless
Stream size : 34.5 KiB (0%)
Language : Chinese
Default : No
Forced : No

Text #19
ID : 21
Format : ASS
Codec ID : S_TEXT/ASS
Duration : 1 h 19 min
Bit rate : 57 b/s
Count of elements : 681
Compression mode : Lossless
Stream size : 33.4 KiB (0%)
Language : Chinese
Default : No
Forced : No

[collapse]
Download Link(s)

Download

Direct download files get automatically deleted after a month or so. Posted on : 05/22/2019

[collapse]
Magnet Link

Magnet

Maria.2019.FILIPINO.720p.NF.WEBRip.DDP5.1.x264-NTG-1.52 GB

[collapse]

You may also like...

error: nah :p~