Mary Poppins Returns (2018)

PG | 2h 10min | Comedy, Family, Fantasy | 19 December 2018 (USA)

Decades after her original visit, the magical nanny returns to help the Banks siblings and Michael’s children through a difficult time in their lives.

Watch trailer

Media information

General
Format : Matroska
Format version : Version 4
File size : 987 MiB
Duration : 2 h 10 min
Overall bit rate : 1 058 kb/s
Movie name : Mary.Poppins.Returns.2018.720p.BrRip.2CH.x265.HEVC
Encoded date : UTC 2019-03-10 12:30:01
Writing application : mkvmerge v31.0.0 (‘Dolores In A Shoestand’) 64-bit
Writing library : libebml v1.3.6 + libmatroska v1.4.9

Video
ID : 1
Format : HEVC
Format/Info : High Efficiency Video Coding
Format profile : [email protected]@Main
Codec ID : V_MPEGH/ISO/HEVC
Duration : 2 h 10 min
Bit rate : 987 kb/s
Width : 1 280 pixels
Height : 536 pixels
Display aspect ratio : 2.40:1
Frame rate mode : Constant
Frame rate : 23.976 (24000/1001) FPS
Color space : YUV
Chroma subsampling : 4:2:0
Bit depth : 8 bits
Bits/(Pixel*Frame) : 0.060
Stream size : 921 MiB (93%)
Default : Yes
Forced : No

Audio
ID : 2
Format : AAC LC SBR
Commercial name : HE-AAC
Format settings : Explicit
Codec ID : A_AAC-2
Duration : 2 h 10 min
Bit rate : 69.0 kb/s
Channel(s) : 2 channels
Channel layout : L R
Sampling rate : 48.0 kHz
Frame rate : 23.438 FPS (2048 SPF)
Compression mode : Lossy
Delay relative to video : 23 ms
Stream size : 64.4 MiB (7%)
Language : English
Default : Yes
Forced : No

Text #1
ID : 3
Format : UTF-8
Codec ID : S_TEXT/UTF8
Codec ID/Info : UTF-8 Plain Text
Duration : 2 h 6 min
Bit rate : 79 b/s
Count of elements : 2265
Stream size : 73.5 KiB (0%)
Title : ENG
Language : English
Default : Yes
Forced : No

Text #2
ID : 4
Format : UTF-8
Codec ID : S_TEXT/UTF8
Codec ID/Info : UTF-8 Plain Text
Duration : 2 h 5 min
Bit rate : 87 b/s
Count of elements : 2444
Stream size : 79.9 KiB (0%)
Title : ENG SDH
Language : English
Default : No
Forced : No

[collapse]
Download Link(s)

Download

Direct download files get automatically deleted after a month or so. Posted on : 03/11/2019

[collapse]
Magnet Link

Magnet

Mary.Poppins.Returns.2018.1080p.BluRay.x264-DRONES-9.85 GB

[collapse]

Media information

General
Format : Matroska
Format version : Version 4
File size : 1.19 GiB
Duration : 2 h 10 min
Overall bit rate : 1 302 kb/s
Movie name : Mary.Poppins.Returns.2018.720p.BluRay.2CH.x264.AVC
Encoded date : UTC 2019-03-08 04:58:58
Writing application : mkvmerge v31.0.0 (‘Dolores In A Shoestand’) 32-bit
Writing library : libebml v1.3.6 + libmatroska v1.4.9

Video
ID : 3
Format : AVC
Format/Info : Advanced Video Codec
Format profile : [email protected]
Format settings : CABAC / 12 Ref Frames
Format settings, CABAC : Yes
Format settings, RefFrames : 12 frames
Codec ID : V_MPEG4/ISO/AVC
Duration : 2 h 10 min
Bit rate : 1 200 kb/s
Width : 1 280 pixels
Height : 536 pixels
Display aspect ratio : 2.40:1
Frame rate mode : Constant
Frame rate : 23.976 (24000/1001) FPS
Color space : YUV
Chroma subsampling : 4:2:0
Bit depth : 8 bits
Scan type : Progressive
Bits/(Pixel*Frame) : 0.073
Stream size : 1.09 GiB (92%)
Default : Yes
Forced : No

Audio
ID : 4
Format : AAC LC SBR
Commercial name : HE-AAC
Format settings : Explicit
Codec ID : A_AAC-2
Duration : 2 h 10 min
Bit rate : 100.0 kb/s
Channel(s) : 2 channels
Channel layout : L R
Sampling rate : 48.0 kHz
Frame rate : 23.438 FPS (2048 SPF)
Compression mode : Lossy
Delay relative to video : 43 ms
Stream size : 93.3 MiB (8%)
Language : English
Default : Yes
Forced : No

Text #1
ID : 1
Format : UTF-8
Codec ID : S_TEXT/UTF8
Codec ID/Info : UTF-8 Plain Text
Duration : 2 h 5 min
Bit rate : 80 b/s
Count of elements : 2449
Stream size : 73.5 KiB (0%)
Title : SDH
Language : English
Default : No
Forced : No

Text #2
ID : 2
Format : UTF-8
Codec ID : S_TEXT/UTF8
Codec ID/Info : UTF-8 Plain Text
Duration : 2 h 5 min
Bit rate : 73 b/s
Count of elements : 2271
Stream size : 67.0 KiB (0%)
Language : English
Default : Yes
Forced : No

[collapse]
Download Link(s)

Download

Direct download files get automatically deleted after a month or so. Posted on : 03/08/2019

[collapse]
Magnet Link

Magnet

Mary.Poppins.Returns.2018.1080p.BluRay.x264-DRONES-9.85 GB

[collapse]

You may also like...

error: nah :p~