May the Devil Take You (2018)

Sebelum Iblis Menjemput (original title)|1h 50min | Horror | 9 August 2018 (Indonesia)

When her estranged father falls into a mysterious coma, a young woman seeks answers at his old villa, where she and her stepsister uncover dark truths.

Watch trailer

Media information

General
Format : Matroska
Format version : Version 4
File size : 701 MiB
Duration : 1 h 50 min
Overall bit rate : 886 kb/s
Movie name : May.The.Devil.Take.You.2018.INDONESIAN.720p.WEBRip.2CH.x265.HEVC
Encoded date : UTC 2018-11-18 19:41:23
Writing application : mkvmerge v28.2.0 (‘The Awakening’) 32-bit
Writing library : libebml v1.3.6 + libmatroska v1.4.9

Video
ID : 1
Format : HEVC
Format/Info : High Efficiency Video Coding
Format profile : [email protected]@Main
Codec ID : V_MPEGH/ISO/HEVC
Duration : 1 h 50 min
Bit rate : 820 kb/s
Width : 1 280 pixels
Height : 692 pixels
Display aspect ratio : 1.85:1
Frame rate mode : Constant
Frame rate : 23.976 (24000/1001) FPS
Color space : YUV
Chroma subsampling : 4:2:0
Bit depth : 8 bits
Bits/(Pixel*Frame) : 0.039
Stream size : 649 MiB (93%)
Default : Yes
Forced : No
Color range : Limited
Color primaries : BT.709
Transfer characteristics : BT.709
Matrix coefficients : BT.709

Audio
ID : 2
Format : AAC LC SBR
Commercial name : HE-AAC
Format settings : Explicit
Codec ID : A_AAC-2
Duration : 1 h 50 min
Bit rate : 64.0 kb/s
Channel(s) : 2 channels
Channel layout : L R
Sampling rate : 48.0 kHz
Frame rate : 23.438 FPS (2048 SPF)
Compression mode : Lossy
Delay relative to video : -4 ms
Stream size : 50.6 MiB (7%)
Default : Yes
Forced : No

Text
ID : 3
Format : UTF-8
Codec ID : S_TEXT/UTF8
Codec ID/Info : UTF-8 Plain Text
Duration : 1 h 50 min
Bit rate : 16 b/s
Count of elements : 599
Stream size : 13.0 KiB (0%)
Language : English
Default : Yes
Forced : No

[collapse]
Download Link(s)

Download

Direct download files get automatically deleted after a month or so. Posted on : 11/18/2018

[collapse]
Magnet Link

Magnet

May.The.Devil.Take.You.2018.INDONESIAN.1080p.NF.WEBRip.DD5.1.x264-TOMMY-2.98 GB

[collapse]

You may also like...

error: nah :p~