Maze Runner: The Scorch Trials (2015)

PG-13 | 2h 11min | Action, Sci-Fi, Thriller | 18 September 2015 (USA)

After having escaped the Maze, the Gladers now face a new set of challenges on the open roads of a desolate landscape filled with unimaginable obstacles.

Watch trailer

Media information

General
Format : Matroska
Format version : Version 4 / Version 2
File size : 833 MiB
Duration : 2 h 11 min
Overall bit rate : 884 kb/s
Movie name : Maze.Runner.The.Scorch.Trials.2015.720p.BluRay.2CH.x265.HEVC
Encoded date : UTC 2018-07-04 10:27:53
Writing application : mkvmerge v24.0.0 (‘Beyond The Pale’) 32-bit
Writing library : libebml v1.3.6 + libmatroska v1.4.9

Video
ID : 1
Format : HEVC
Format/Info : High Efficiency Video Coding
Format profile : [email protected]@Main
Codec ID : V_MPEGH/ISO/HEVC
Duration : 2 h 11 min
Bit rate : 813 kb/s
Width : 1 280 pixels
Height : 536 pixels
Display aspect ratio : 2.40:1
Frame rate mode : Constant
Frame rate : 23.976 (24000/1001) FPS
Color space : YUV
Chroma subsampling : 4:2:0
Bit depth : 8 bits
Bits/(Pixel*Frame) : 0.049
Stream size : 766 MiB (92%)
Default : Yes
Forced : No
Color range : Limited
Color primaries : BT.709
Transfer characteristics : BT.709
Matrix coefficients : BT.709

Audio
ID : 2
Format : AAC
Format/Info : Advanced Audio Codec
Format profile : HE-AAC / LC
Format settings : NBC
Codec ID : A_AAC-5
Duration : 2 h 11 min
Bit rate : 69.0 kb/s
Channel(s) : 2 channels
Channel positions : Front: L R
Sampling rate : 48.0 kHz / 24.0 kHz
Frame rate : 23.438 FPS (1024 SPF)
Compression mode : Lossy
Delay relative to video : -105 ms
Stream size : 65.0 MiB (8%)
Title : Stereo
Language : English
Default : Yes
Forced : No

Text #1
ID : 3
Format : UTF-8
Codec ID : S_TEXT/UTF8
Codec ID/Info : UTF-8 Plain Text
Duration : 2 h 3 min
Bit rate : 40 b/s
Count of elements : 1484
Stream size : 36.5 KiB (0%)
Title : ENG
Language : English
Default : No
Forced : No

Text #2
ID : 4
Format : UTF-8
Codec ID : S_TEXT/UTF8
Codec ID/Info : UTF-8 Plain Text
Duration : 2 h 4 min
Bit rate : 51 b/s
Count of elements : 1545
Stream size : 46.9 KiB (0%)
Title : ENG SDH
Language : English
Default : Yes
Forced : No

[collapse]
Download Link(s)

Download

Direct download files get automatically deleted after a month or so. Posted on : 07/04/2018

[collapse]
Magnet Link

Magnet

Source : Maze.Runner.The.Scorch.Trials.2015.2160p.BluRay.REMUX.HEVC.DTS-HD.MA.7.1-FGT- 50.04 GB

[collapse]

You may also like...

error: nah :p~