Mermaid Down (2019)

1h 31min | Fantasy, Horror, Mystery | 2 October 2019 (USA)

A mermaid is ripped from the Pacific, her tail is chopped off and she’s thrown into a mental home where no one believes she is a mermaid.

Watch trailer

Media information

General
Format : Matroska
Format version : Version 4
File size : 835 MiB
Duration : 1 h 34 min
Overall bit rate : 1 233 kb/s
Movie name : Mermaid.Down.2019.720p.WEB-DL.2CH.x264.AVC
Encoded date : UTC 2019-10-03 07:42:51
Writing application : mkvmerge v37.0.0 (‘Leave It’) 32-bit
Writing library : libebml v1.3.9 + libmatroska v1.5.2

Video
ID : 1
Format : AVC
Format/Info : Advanced Video Codec
Format profile : [email protected]
Format settings : CABAC / 4 Ref Frames
Format settings, CABAC : Yes
Format settings, Reference frames : 4 frames
Codec ID : V_MPEG4/ISO/AVC
Duration : 1 h 34 min
Bit rate : 1 100 kb/s
Width : 1 280 pixels
Height : 534 pixels
Display aspect ratio : 2.40:1
Frame rate mode : Constant
Frame rate : 23.976 (24000/1001) FPS
Color space : YUV
Chroma subsampling : 4:2:0
Bit depth : 8 bits
Scan type : Progressive
Bits/(Pixel*Frame) : 0.067
Stream size : 746 MiB (89%)
Default : Yes
Forced : No
Color range : Limited
Color primaries : BT.709
Transfer characteristics : BT.709
Matrix coefficients : BT.709

Audio
ID : 2
Format : AAC LC
Codec ID : A_AAC-2
Duration : 1 h 34 min
Bit rate : 128 kb/s
Channel(s) : 2 channels
Channel layout : L R
Sampling rate : 48.0 kHz
Frame rate : 46.875 FPS (1024 SPF)
Compression mode : Lossy
Delay relative to video : -21 ms
Stream size : 86.8 MiB (10%)
Language : English
Default : Yes
Forced : No

Text
ID : 3
Format : ASS
Codec ID : S_TEXT/ASS
Duration : 1 h 32 min
Bit rate : 79 b/s
Count of elements : 937
Compression mode : Lossless
Stream size : 54.0 KiB (0%)
Language : English
Default : No
Forced : No

[collapse]
Download Link(s)

Download

Direct download files get automatically deleted after a month or so. Posted on : 10/03/2019

[collapse]
Magnet Link

Magnet

Mermaid.Down.2019.1080p.WEB-DL.DD5.1.H264-FGT-3.21 GB

[collapse]

You may also like...

error: nah :p~