Michael Jackson: Chase the Truth (2019)

Not Rated | 59min | Documentary | 13 August 2019 (USA)

Acquitted in life, back on trial after death. “Michael Jackson: Chase The Truth” takes an investigative look into the legal battles of the global superstar. Close friends, former staff and researchers paint an intimate portrait of Jackson’s complicated world and put allegations of sexual abuse under the microscope.

Watch trailer

Media information

General
Format : Matroska
Format version : Version 4
File size : 428 MiB
Duration : 59 min 17 s
Overall bit rate : 1 010 kb/s
Movie name : Michael.Jackson.Chase.the.Truth.2019.720p.WEBRip.2CH.x265.HEVC
Encoded date : UTC 2019-08-23 21:32:09
Writing application : mkvmerge v36.0.0 (‘Is That Jazz?’) 32-bit
Writing library : libebml v1.3.9 + libmatroska v1.5.2

Video
ID : 1
Format : HEVC
Format/Info : High Efficiency Video Coding
Format profile : [email protected]@Main
Codec ID : V_MPEGH/ISO/HEVC
Duration : 59 min 17 s
Bit rate : 928 kb/s
Width : 1 280 pixels
Height : 720 pixels
Display aspect ratio : 16:9
Frame rate mode : Constant
Frame rate : 25.000 FPS
Color space : YUV
Chroma subsampling : 4:2:0
Bit depth : 8 bits
Bits/(Pixel*Frame) : 0.040
Stream size : 393 MiB (92%)
Default : Yes
Forced : No

Audio
ID : 2
Format : AAC LC SBR
Commercial name : HE-AAC
Format settings : Explicit
Codec ID : A_AAC-2
Duration : 59 min 16 s
Bit rate : 79.2 kb/s
Channel(s) : 2 channels
Channel layout : L R
Sampling rate : 48.0 kHz
Frame rate : 23.438 FPS (2048 SPF)
Compression mode : Lossy
Delay relative to video : 23 ms
Stream size : 33.6 MiB (8%)
Language : English
Default : Yes
Forced : No

Text #1
ID : 3
Format : UTF-8
Codec ID : S_TEXT/UTF8
Codec ID/Info : UTF-8 Plain Text
Duration : 58 min 48 s
Bit rate : 109 b/s
Count of elements : 1310
Stream size : 47.3 KiB (0%)
Title : English [CC](SDH)
Language : English
Default : Yes
Forced : No

Text #2
ID : 4
Format : UTF-8
Codec ID : S_TEXT/UTF8
Codec ID/Info : UTF-8 Plain Text
Duration : 59 min 12 s
Bit rate : 122 b/s
Count of elements : 1336
Stream size : 53.3 KiB (0%)
Title : Deutsch [UT](SDH)
Language : German
Default : No
Forced : No

Text #3
ID : 5
Format : UTF-8
Codec ID : S_TEXT/UTF8
Codec ID/Info : UTF-8 Plain Text
Duration : 59 min 11 s
Bit rate : 113 b/s
Count of elements : 1291
Stream size : 49.4 KiB (0%)
Title : Español [CC](SDH)
Language : Spanish
Default : No
Forced : No

Text #4
ID : 6
Format : UTF-8
Codec ID : S_TEXT/UTF8
Codec ID/Info : UTF-8 Plain Text
Duration : 59 min 11 s
Bit rate : 112 b/s
Count of elements : 1295
Stream size : 48.7 KiB (0%)
Title : Português [SDH](SDH)
Language : Portuguese
Default : No
Forced : No

[collapse]
Download Link(s)

Download

Direct download files get automatically deleted after a month or so. Posted on : 08/24/2019

[collapse]
Magnet Link

Magnet

Michael.Jackson.Chase.the.Truth.2019.1080p.AMZN.WEBRip.DDP2.0.x264-KamiKaze-3.48 GB

[collapse]

You may also like...

error: nah :p~