Miss Sloane

R | 2h 12min | Drama, Thriller | 9 December 2016 (USA)

In the high-stakes world of political power-brokers, Elizabeth Sloane is the most sought after and formidable lobbyist in D.C. But when taking on the most powerful opponent of her career, she finds winning may come at too high a price.

Watch trailer

Media information

General
Format : Matroska
Format version : Version 4 / Version 2
File size : 1 004 MiB
Duration : 2 h 12 min
Overall bit rate : 1 062 kb/s
Movie name : Miss.Sloane.2016.720p.10bit.BluRay.6CH.x265.HEVC
Encoded date : UTC 2018-01-21 16:53:29
Writing application : mkvmerge v20.0.0 (‘I Am The Sun’) 32-bit
Writing library : libebml v1.3.5 + libmatroska v1.4.8

Video
ID : 1
Format : HEVC
Format/Info : High Efficiency Video Coding
Format profile : Main [email protected]@Main
Codec ID : V_MPEGH/ISO/HEVC
Duration : 2 h 12 min
Bit rate : 855 kb/s
Width : 1 280 pixels
Height : 536 pixels
Display aspect ratio : 2.40:1
Frame rate mode : Constant
Frame rate : 23.976 (24000/1001) FPS
Color space : YUV
Chroma subsampling : 4:2:0
Bit depth : 10 bits
Bits/(Pixel*Frame) : 0.052
Stream size : 808 MiB (81%)
Default : Yes
Forced : No

Audio
ID : 2
Format : AAC
Format/Info : Advanced Audio Codec
Format profile : HE-AAC / LC
Format settings : NBC
Codec ID : A_AAC-2
Duration : 2 h 12 min
Bit rate : 205 kb/s
Channel(s) : 6 channels
Channel(s)_Original : 18 channels
Channel positions : Front: 14, Side: C, Back: C, LFE= 2
Sampling rate : 48.0 kHz / 24.0 kHz
Frame rate : 23.438 FPS (1024 SPF)
Compression mode : Lossy
Delay relative to video : 23 ms
Stream size : 194 MiB (19%)
Language : English
Default : Yes
Forced : No

Text #1
ID : 3
Format : UTF-8
Codec ID : S_TEXT/UTF8
Codec ID/Info : UTF-8 Plain Text
Duration : 2 h 5 min
Bit rate : 93 b/s
Count of elements : 2635
Stream size : 86.3 KiB (0%)
Title : ENG
Language : English
Default : Yes
Forced : No

Text #2
ID : 4
Format : UTF-8
Codec ID : S_TEXT/UTF8
Codec ID/Info : UTF-8 Plain Text
Duration : 2 h 5 min
Bit rate : 96 b/s
Count of elements : 2715
Stream size : 89.4 KiB (0%)
Title : ENG SDH
Language : English
Default : No
Forced : No

[collapse]
Download Link(s)

Download

[RE-UP]-Direct download files get automatically deleted after a month or so. Posted on : 08/03/2018

[collapse]
Magnet Link

Magnet

Source : Miss.Sloane.2016.1080p.BluRay.x264-GECKOS-9.88 GB

[collapse]

You may also like...

error: nah :p~