Mortal Engines (2018)

PG-13 | 2h 8min | Action, Adventure, Fantasy | 14 December 2018 (USA)

In a post-apocalyptic world where cities ride on wheels and consume each other to survive, two people meet in London and try to stop a conspiracy.

Watch trailer

Media information

General
Format : Matroska
Format version : Version 4
File size : 941 MiB
Duration : 2 h 8 min
Overall bit rate : 1 025 kb/s
Movie name : Mortal.Engines.2018.720p.WEB-DL.2CH.x265.HEVC
Encoded date : UTC 2019-02-02 23:11:05
Writing application : mkvmerge v30.1.0 (‘Forever And More’) 32-bit
Writing library : libebml v1.3.6 + libmatroska v1.4.9

Video
ID : 1
Format : HEVC
Format/Info : High Efficiency Video Coding
Format profile : [email protected]@Main
Codec ID : V_MPEGH/ISO/HEVC
Duration : 2 h 8 min
Bit rate : 950 kb/s
Width : 1 280 pixels
Height : 528 pixels
Display aspect ratio : 2.40:1
Frame rate mode : Constant
Frame rate : 23.976 (24000/1001) FPS
Color space : YUV
Chroma subsampling : 4:2:0
Bit depth : 8 bits
Bits/(Pixel*Frame) : 0.059
Stream size : 872 MiB (93%)
Default : Yes
Forced : No

Audio
ID : 2
Format : AAC LC SBR
Commercial name : HE-AAC
Format settings : Explicit
Codec ID : A_AAC-2
Duration : 2 h 8 min
Bit rate : 72.0 kb/s
Channel(s) : 2 channels
Channel layout : L R
Sampling rate : 48.0 kHz
Frame rate : 23.438 FPS (2048 SPF)
Compression mode : Lossy
Delay relative to video : 23 ms
Stream size : 66.9 MiB (7%)
Language : English
Default : Yes
Forced : No

Text
ID : 3
Format : UTF-8
Codec ID : S_TEXT/UTF8
Codec ID/Info : UTF-8 Plain Text
Duration : 1 h 57 min
Bit rate : 39 b/s
Count of elements : 1322
Stream size : 34.5 KiB (0%)
Language : English
Default : Yes
Forced : No

[collapse]
Download Link(s)

Download

Direct download files get automatically deleted after a month or so. Posted on : 02/03/2019

[collapse]
Magnet Link

Magnet

Mortal.Engines.2018.1080p.WEB-DL.DD5.1.H264-FGT-4.38 GB

[collapse]

You may also like...

error: nah :p~