Muhammad: The Messenger of God (2015)

2h 58min | Biography, Drama, History | 27 August 2015 (Iran)

The events, trials and tribulations of the city of Makkah in 7th century AD.

Watch trailer

Media information

General
Format : Matroska
Format version : Version 4 / Version 2
File size : 1.01 GiB
Duration : 2 h 57 min
Overall bit rate : 813 kb/s
Movie name : Muhammad.The.Messenger.of.God.2015.720p.BRRip.HEVC
Encoded date : UTC 2018-01-14 16:03:03
Writing application : mkvmerge v19.0.0 (‘Brave Captain’) 32-bit
Writing library : libebml v1.3.5 + libmatroska v1.4.8

Video
ID : 2
Format : HEVC
Format/Info : High Efficiency Video Coding
Format profile : [email protected]@Main
Codec ID : V_MPEGH/ISO/HEVC
Duration : 2 h 57 min
Bit rate : 748 kb/s
Width : 1 280 pixels
Height : 640 pixels
Display aspect ratio : 2.000
Frame rate mode : Constant
Frame rate : 25.000 FPS
Color space : YUV
Chroma subsampling : 4:2:0
Bit depth : 8 bits
Bits/(Pixel*Frame) : 0.037
Stream size : 948 MiB (92%)
Writing library : x265 2.1:[Windows][GCC 5.3.1][64 bit] 8bit
Default : Yes
Forced : No
Color range : Limited
Color primaries : BT.709
Transfer characteristics : BT.709
Matrix coefficients : BT.709

Audio
ID : 1
Format : AAC
Format/Info : Advanced Audio Codec
Format profile : HE-AAC / LC
Format settings : Explicit
Codec ID : A_AAC-2
Duration : 2 h 57 min
Bit rate : 63.9 kb/s
Channel(s) : 2 channels
Channel positions : Front: L R
Sampling rate : 48.0 kHz / 24.0 kHz
Frame rate : 23.438 FPS (1024 SPF)
Compression mode : Lossy
Delay relative to video : 31 ms
Stream size : 81.1 MiB (8%)
Language : Persian
Default : Yes
Forced : No

Text
ID : 3
Format : UTF-8
Codec ID : S_TEXT/UTF8
Codec ID/Info : UTF-8 Plain Text
Duration : 2 h 52 min
Bit rate : 33 b/s
Count of elements : 1050
Stream size : 42.5 KiB (0%)
Default : Yes
Forced : No

[collapse]
Download Link(s)

Download

Direct download files get automatically deleted after a month or so. Posted on : 01/14/2018

[collapse]
Magnet Link

Magnet

Source : Muhammad.The.Messenger.of.God.2015.1080p.WEBRip.DD5.1.x264-monkee- 6.59 GB

[collapse]

Release Notes

Language: Persian

Subtitles: English (Auto translated)

[collapse]

You may also like...

error: nah :p~