Naked: The Lust (2020)

48min | Thriller | 12 December 2020 (India)

A rich and affluent man gets killed under mysterious circumstances and it gets difficult for the police to trace the killer. As the police remain clueless about the murder, they suspect the maid, her husband and the neighbor with whom he had trivial issues and some other characters. Who killed the man and what’s the motive for the murder forms the rest of the story.

Watch trailer

Media information

General
Format : Matroska
Format version : Version 4
File size : 537 MiB
Duration : 48 min 18 s
Overall bit rate : 1 555 kb/s
Movie name : The.Lust.A.Murder.Mystery.2021.DUAL-AUDIO.HIN-TEL.1080p.10bit.WEBRip.2CH.x265.HEVC

Video
ID : 1
Format : HEVC
Format/Info : High Efficiency Video Coding
Format profile : Main [email protected]@Main
Codec ID : V_MPEGH/ISO/HEVC
Duration : 48 min 18 s
Bit rate : 1 359 kb/s
Width : 1 920 pixels
Height : 816 pixels
Display aspect ratio : 2.35:1
Frame rate mode : Constant
Frame rate : 24.000 FPS
Color space : YUV
Chroma subsampling : 4:2:0
Bit depth : 10 bits
Bits/(Pixel*Frame) : 0.036
Stream size : 469 MiB (87%)
Default : Yes
Forced : No
Color range : Limited
Color primaries : BT.709
Transfer characteristics : BT.709
Matrix coefficients : BT.709

Audio #1
ID : 2
Format : AAC LC
Codec ID : A_AAC-2
Duration : 48 min 18 s
Bit rate : 96.0 kb/s
Channel(s) : 2 channels
Channel layout : L R
Sampling rate : 44.1 kHz
Frame rate : 43.066 FPS (1024 SPF)
Compression mode : Lossy
Stream size : 33.3 MiB (6%)
Language : Hindi
Default : Yes
Forced : No

Audio #2
ID : 3
Format : AAC LC
Codec ID : A_AAC-2
Duration : 48 min 18 s
Bit rate : 96.0 kb/s
Channel(s) : 2 channels
Channel layout : L R
Sampling rate : 44.1 kHz
Frame rate : 43.066 FPS (1024 SPF)
Compression mode : Lossy
Stream size : 33.3 MiB (6%)
Language : Telugu
Default : No
Forced : No

Text
ID : 4
Format : UTF-8
Codec ID : S_TEXT/UTF8
Codec ID/Info : UTF-8 Plain Text
Duration : 44 min 48 s
Bit rate : 46 b/s
Count of elements : 463
Stream size : 15.4 KiB (0%)
Language : English
Default : Yes
Forced : No

[collapse]
Download Link(s)

Download

Direct download files get automatically deleted after a month or so. Posted on : 02/18/2021

[collapse]
Magnet Link

Magnet

The-Lust-A-Murder-Mystery-2021-Hindi-1080p-WEBRip-x264-AAC-ESub-774.4 MB

[collapse]

Media information

General
Format : Matroska
Format version : Version 4
File size : 268 MiB
Duration : 48 min 18 s
Overall bit rate : 776 kb/s
Movie name : The.Lust.A.Murder.Mystery.2021.DUAL-AUDIO.HIN-TEL.720p.10bit.WEBRip.2CH.x265.HEVC

Video
ID : 1
Format : HEVC
Format/Info : High Efficiency Video Coding
Format profile : Main [email protected]@Main
Codec ID : V_MPEGH/ISO/HEVC
Duration : 48 min 18 s
Bit rate : 580 kb/s
Width : 1 280 pixels
Height : 544 pixels
Display aspect ratio : 2.35:1
Frame rate mode : Constant
Frame rate : 24.000 FPS
Color space : YUV
Chroma subsampling : 4:2:0
Bit depth : 10 bits
Bits/(Pixel*Frame) : 0.035
Stream size : 200 MiB (75%)
Default : Yes
Forced : No
Color range : Limited
Color primaries : BT.709
Transfer characteristics : BT.709
Matrix coefficients : BT.709

Audio #1
ID : 2
Format : AAC LC
Codec ID : A_AAC-2
Duration : 48 min 18 s
Bit rate : 96.0 kb/s
Channel(s) : 2 channels
Channel layout : L R
Sampling rate : 44.1 kHz
Frame rate : 43.066 FPS (1024 SPF)
Compression mode : Lossy
Stream size : 33.3 MiB (12%)
Language : Hindi
Default : Yes
Forced : No

Audio #2
ID : 3
Format : AAC LC
Codec ID : A_AAC-2
Duration : 48 min 18 s
Bit rate : 96.0 kb/s
Channel(s) : 2 channels
Channel layout : L R
Sampling rate : 44.1 kHz
Frame rate : 43.066 FPS (1024 SPF)
Compression mode : Lossy
Stream size : 33.3 MiB (12%)
Language : Telugu
Default : No
Forced : No

Text
ID : 4
Format : UTF-8
Codec ID : S_TEXT/UTF8
Codec ID/Info : UTF-8 Plain Text
Duration : 44 min 48 s
Bit rate : 46 b/s
Count of elements : 463
Stream size : 15.4 KiB (0%)
Language : English
Default : Yes
Forced : No

[collapse]
Download Link(s)

Download

Direct download files get automatically deleted after a month or so. Posted on : 02/18/2021

[collapse]
Magnet Link

Magnet

The-Lust-A-Murder-Mystery-2021-Hindi-1080p-WEBRip-x264-AAC-ESub-774.4 MB

[collapse]

You may also like...

error: nah :p~