Nanny McPhee Returns (2010)

Nanny McPhee and the Big Bang (original title)|PG | 1h 49min | Comedy , Family , Fantasy | 20 August 2010 (USA)

Nanny McPhee arrives to help a harried young mother who is trying to run the family farm while her husband is away at war, though she uses her magic to teach the woman’s children and their two spoiled cousins five new lessons.

Watch trailer

Media information

General
Format : Matroska
Format version : Version 4
File size : 804 MiB
Duration : 1 h 49 min
Overall bit rate : 1 030 kb/s
Movie name : Nanny.McPhee.Returns.2010.720p.BluRay.2CH.x265.HEVC
Encoded date : UTC 2018-10-08 07:11:55
Writing application : mkvmerge v27.0.0 (‘Metropolis’) 32-bit
Writing library : libebml v1.3.6 + libmatroska v1.4.9

Video
ID : 1
Format : HEVC
Format/Info : High Efficiency Video Coding
Format profile : [email protected]@Main
Codec ID : V_MPEGH/ISO/HEVC
Duration : 1 h 49 min
Bit rate : 931 kb/s
Width : 1 280 pixels
Height : 534 pixels
Display aspect ratio : 2.40:1
Original display aspect ratio : 2.40:1
Frame rate mode : Constant
Frame rate : 23.976 (24000/1001) FPS
Color space : YUV
Chroma subsampling : 4:2:0
Bit depth : 8 bits
Bits/(Pixel*Frame) : 0.057
Stream size : 728 MiB (90%)
Default : Yes
Forced : No
Color range : Limited
Color primaries : BT.709
Transfer characteristics : BT.709
Matrix coefficients : BT.709

Audio
ID : 2
Format : AAC LC
Codec ID : A_AAC-2
Duration : 1 h 49 min
Bit rate : 96.0 kb/s
Channel(s) : 2 channels
Channel layout : L R
Sampling rate : 48.0 kHz
Frame rate : 46.875 FPS (1024 SPF)
Compression mode : Lossy
Stream size : 75.1 MiB (9%)
Title : Stereo
Language : English
Default : Yes
Forced : No

Text
ID : 3
Format : ASS
Codec ID : S_TEXT/ASS
Duration : 1 h 41 min
Bit rate : 97 b/s
Count of elements : 1335
Compression mode : Lossless
Stream size : 72.9 KiB (0%)
Language : English
Default : Yes
Forced : Yes

[collapse]
Download Link(s)

Links removed

Direct download files get automatically deleted after a month or so. Posted on : 10/08/2018

[collapse]
Magnet Link

Links removed

Source : Nanny.McPhee.Returns.2010.1080p.BluRay.x264.DTS-FGT-7.94 GB

[collapse]

You may also like...

error: nah :p~