Nereus (2019)

1h 43min | Horror, Mystery, Thriller | 11 January 2019 (Turkey)

During a visit to friends, Sara begins having visions and is attacked by an unearthly creature.

Watch trailer

Media information

General
Format : Matroska
Format version : Version 4
File size : 952 MiB
Duration : 1 h 47 min
Overall bit rate : 1 239 kb/s
Movie name : Nereus.2019.720p.BluRay.2CH.x264.AVC
Encoded date : UTC 2019-04-22 16:31:33
Writing application : mkvmerge v33.1.0 (‘Primrose’) 32-bit
Writing library : libebml v1.3.7 + libmatroska v1.5.0

Video
ID : 1
Format : AVC
Format/Info : Advanced Video Codec
Format profile : [email protected]
Format settings : CABAC / 8 Ref Frames
Format settings, CABAC : Yes
Format settings, RefFrames : 8 frames
Codec ID : V_MPEG4/ISO/AVC
Duration : 1 h 47 min
Bit rate : 1 110 kb/s
Width : 1 280 pixels
Height : 544 pixels
Display aspect ratio : 2.35:1
Frame rate mode : Constant
Frame rate : 23.976 (24000/1001) FPS
Color space : YUV
Chroma subsampling : 4:2:0
Bit depth : 8 bits
Scan type : Progressive
Bits/(Pixel*Frame) : 0.066
Stream size : 852 MiB (90%)
Default : Yes
Forced : No

Audio
ID : 2
Format : AAC LC SBR
Commercial name : HE-AAC
Format settings : Explicit
Codec ID : A_AAC-2
Duration : 1 h 47 min
Bit rate : 128 kb/s
Channel(s) : 2 channels
Channel layout : L R
Sampling rate : 48.0 kHz
Frame rate : 23.438 FPS (2048 SPF)
Compression mode : Lossy
Delay relative to video : 43 ms
Stream size : 98.3 MiB (10%)
Language : English
Default : Yes
Forced : No

[collapse]
Download Link(s)

Download

No subs are available

Direct download files get automatically deleted after a month or so. Posted on : 04/22/2019

[collapse]
Magnet Link

Magnet

Nereus.2019.REPACK.720p.BluRay.x264-JustWatch-4.37 GB

[collapse]

You may also like...

error: nah :p~