Nighthawks (2019)

Drama, Thriller | 3 October 2019 (USA)

Wide-eyed Midwest transplant Stan (Chace Crawford) agrees to play wingman to his calculating and privileged roommate Chad (Kevin Zegers) as they embark upon an exploration of glittering New York nightlife, whose darkest secrets are held captive by an elite band of millennials known as Nighthawks.

Watch trailer

Media information

General
Format : Matroska
Format version : Version 4
File size : 232 MiB
Duration : 1 h 30 min
Overall bit rate : 356 kb/s
Movie name : Nighthawks.2019.720p.WEB-DL.2CH.x265.HEVC
Encoded date : UTC 2019-10-03 12:28:01
Writing application : mkvmerge v37.0.0 (‘Leave It’) 32-bit
Writing library : libebml v1.3.9 + libmatroska v1.5.2

Video
ID : 1
Format : HEVC
Format/Info : High Efficiency Video Coding
Format profile : [email protected]@Main
Codec ID : V_MPEGH/ISO/HEVC
Duration : 1 h 30 min
Bit rate : 290 kb/s
Width : 1 280 pixels
Height : 534 pixels
Display aspect ratio : 2.40:1
Frame rate mode : Constant
Frame rate : 23.976 (24000/1001) FPS
Color space : YUV
Chroma subsampling : 4:2:0
Bit depth : 8 bits
Bits/(Pixel*Frame) : 0.018
Stream size : 188 MiB (81%)
Default : Yes
Forced : No
Color range : Limited
Color primaries : BT.709
Transfer characteristics : BT.709
Matrix coefficients : BT.709

Audio
ID : 2
Format : AAC LC
Codec ID : A_AAC-2
Duration : 1 h 30 min
Bit rate : 64.3 kb/s
Channel(s) : 2 channels
Channel layout : L R
Sampling rate : 48.0 kHz
Frame rate : 46.875 FPS (1024 SPF)
Compression mode : Lossy
Delay relative to video : -21 ms
Stream size : 41.8 MiB (18%)
Title : Stereo
Language : English
Default : Yes
Forced : No

Text #1
ID : 3
Format : ASS
Codec ID : S_TEXT/ASS
Duration : 1 h 28 min
Bit rate : 126 b/s
Count of elements : 1502
Compression mode : Lossless
Stream size : 81.9 KiB (0%)
Language : English
Default : Yes
Forced : Yes

Text #2
ID : 4
Format : ASS
Codec ID : S_TEXT/ASS
Duration : 1 h 29 min
Bit rate : 131 b/s
Count of elements : 1589
Compression mode : Lossless
Stream size : 85.9 KiB (0%)
Language : English
Default : No
Forced : No

[collapse]
Download Link(s)

Download

Direct download files get automatically deleted after a month or so. Posted on : 10/03/2019

[collapse]
Magnet Link

Magnet

Nighthawks.2019.1080p.AMZN.WEBRip.DDP5.1.x264-NTG-3.16 GB

[collapse]

You may also like...

error: nah :p~