Nightwish: Decades – Live in Buenos Aires (2019)

2h 12min | Music | Video 6 December 2019

Live show filmed on September 30th, 2018 at the Estadio Malvinas stadium in Argentina.

Watch trailer

Media information

General
Format : Matroska
Format version : Version 4
File size : 2.07 GiB
Duration : 2 h 11 min
Overall bit rate : 2 251 kb/s
Movie name : Nightwish.Decades.Live.in.Buenos.Aires.2019.1080p.10bit.BluRay.6CH.x265.HEVC

Video
ID : 1
Format : HEVC
Format/Info : High Efficiency Video Coding
Format profile : Main [email protected]@Main
Codec ID : V_MPEGH/ISO/HEVC
Duration : 2 h 11 min
Bit rate : 1 800 kb/s
Width : 1 920 pixels
Height : 1 080 pixels
Display aspect ratio : 16:9
Frame rate mode : Constant
Frame rate : 24.000 FPS
Color space : YUV
Chroma subsampling : 4:2:0
Bit depth : 10 bits
Bits/(Pixel*Frame) : 0.036
Stream size : 1.66 GiB (80%)
Default : Yes
Forced : No
Color range : Limited
Color primaries : BT.709
Transfer characteristics : BT.709
Matrix coefficients : BT.709

Audio
ID : 2
Format : AAC LC
Codec ID : A_AAC-2
Duration : 2 h 11 min
Bit rate : 449 kb/s
Channel(s) : 6 channels
Channel layout : C L R Ls Rs LFE
Sampling rate : 48.0 kHz
Frame rate : 46.875 FPS (1024 SPF)
Compression mode : Lossy
Delay relative to video : -21 ms
Stream size : 423 MiB (20%)
Language : English
Default : Yes
Forced : No

[collapse]
Download Link(s)

Part01 Part02

Direct download files get automatically deleted after a month or so. Posted on : 08/16/2020

[collapse]
Magnet Link

Magnet

Nightwish.Decades.Live.in.Buenos.Aires.2019.1080p.BluRay.x264-HANDJOB-12.65 GB

[collapse]

Media information

General
Format : Matroska
Format version : Version 4
File size : 1.18 GiB
Duration : 2 h 11 min
Overall bit rate : 1 287 kb/s
Movie name : Nightwish.Decades.Live.in.Buenos.Aires.2019.720p.10bit.BluRay.6CH.x265.HEVC

Video
ID : 1
Format : HEVC
Format/Info : High Efficiency Video Coding
Format profile : Main [email protected]@Main
Codec ID : V_MPEGH/ISO/HEVC
Duration : 2 h 11 min
Bit rate : 901 kb/s
Width : 1 280 pixels
Height : 720 pixels
Display aspect ratio : 16:9
Frame rate mode : Constant
Frame rate : 24.000 FPS
Color space : YUV
Chroma subsampling : 4:2:0
Bit depth : 10 bits
Bits/(Pixel*Frame) : 0.041
Stream size : 848 MiB (70%)
Default : Yes
Forced : No
Color range : Limited
Color primaries : BT.709
Transfer characteristics : BT.709
Matrix coefficients : BT.709

Audio
ID : 2
Format : AAC LC
Codec ID : A_AAC-2
Duration : 2 h 11 min
Bit rate : 384 kb/s
Channel(s) : 6 channels
Channel layout : C L R Ls Rs LFE
Sampling rate : 48.0 kHz
Frame rate : 46.875 FPS (1024 SPF)
Compression mode : Lossy
Delay relative to video : -21 ms
Stream size : 362 MiB (30%)
Language : English
Default : Yes
Forced : No

[collapse]
Download Link(s)

Download

Direct download files get automatically deleted after a month or so. Posted on : 08/16/2020

[collapse]
Magnet Link

Magnet

Nightwish.Decades.Live.in.Buenos.Aires.2019.1080p.BluRay.x264-HANDJOB-12.65 GB

[collapse]

You may also like...

error: nah :p~