No Good Heroes (2018)

TV-MA | 1h 31min | Comedy, Drama, Horror | 24 July 2018 (USA)

After living peacefully in the caverns of a small town, a stranded group of aliens turn deadly as they fight for their existence, betraying the compassionate chief of police who has protected them for 28 years.

Watch trailer

Media information

General
Format : Matroska
Format version : Version 4 / Version 2
File size : 731 MiB
Duration : 1 h 31 min
Overall bit rate : 1 116 kb/s
Movie name : No.Good.Heroes.2018.720p.WEB-DL.2CH.x264.AVC
Encoded date : UTC 2018-07-24 13:15:51
Writing application : mkvmerge v25.0.0 (‘Prog Noir’) 32-bit
Writing library : libebml v1.3.6 + libmatroska v1.4.9

Video
ID : 1
Format : AVC
Format/Info : Advanced Video Codec
Format profile : [email protected]
Format settings : CABAC / 5 Ref Frames
Format settings, CABAC : Yes
Format settings, RefFrames : 5 frames
Codec ID : V_MPEG4/ISO/AVC
Duration : 1 h 31 min
Bit rate : 1 050 kb/s
Width : 1 280 pixels
Height : 528 pixels
Display aspect ratio : 2.40:1
Frame rate mode : Constant
Frame rate : 23.976 (24000/1001) FPS
Color space : YUV
Chroma subsampling : 4:2:0
Bit depth : 8 bits
Scan type : Progressive
Bits/(Pixel*Frame) : 0.065
Stream size : 687 MiB (94%)
Default : Yes
Forced : No
Color range : Limited
Color primaries : BT.709
Transfer characteristics : BT.709
Matrix coefficients : BT.709

Audio
ID : 2
Format : AAC
Format/Info : Advanced Audio Codec
Format profile : LC
Codec ID : A_AAC-2
Duration : 1 h 31 min
Bit rate : 64.3 kb/s
Channel(s) : 2 channels
Channel positions : Front: L R
Sampling rate : 48.0 kHz
Frame rate : 46.875 FPS (1024 SPF)
Compression mode : Lossy
Stream size : 42.1 MiB (6%)
Language : English
Default : Yes
Forced : No

Text
ID : 3
Format : UTF-8
Codec ID : S_TEXT/UTF8
Codec ID/Info : UTF-8 Plain Text
Duration : 1 h 30 min
Bit rate : 33 b/s
Count of elements : 841
Stream size : 22.0 KiB (0%)
Language : English
Default : Yes
Forced : No

[collapse]
Download Link(s)

Download

Direct download files get automatically deleted after a month or so. Posted on : 07/24/2018

[collapse]
Magnet Link

Magnet

Source : No.Good.Heroes.2018.1080p.AMZN.WEBRip.DDP5.1.x264-NTG-5.05 GB

[collapse]

You may also like...

error: nah :p~