O.G. (2018)

TV-MA | 1h 53min | Drama | 23 February 2019 (USA)

A maximum-security prison inmate named Louis, who, 24 years after committing a violent crime as a young man, finds himself on the cusp of release from prison, facing an uncertain future on the outside. He encounters Beech, a newly incarcerated young man who offers him much needed-friendship, though it’s not without unfortunate complications. The younger inmate echoes of his older counterpart, stirring instincts within Louis that had long been buried beneath a tough exterior.

Watch trailer

Media information

General
Format : Matroska
Format version : Version 4
File size : 901 MiB
Duration : 1 h 50 min
Overall bit rate : 1 145 kb/s
Movie name : O.G.2019.720p.WEB-DL.2CH.x264.AVC
Encoded date : UTC 2019-02-24 12:32:24
Writing application : mkvmerge v31.0.0 (‘Dolores In A Shoestand’) 32-bit
Writing library : libebml v1.3.6 + libmatroska v1.4.9

Video
ID : 1
Format : AVC
Format/Info : Advanced Video Codec
Format profile : [email protected]
Format settings : CABAC / 5 Ref Frames
Format settings, CABAC : Yes
Format settings, RefFrames : 5 frames
Codec ID : V_MPEG4/ISO/AVC
Duration : 1 h 50 min
Bit rate : 1 079 kb/s
Width : 1 280 pixels
Height : 544 pixels
Display aspect ratio : 2.35:1
Frame rate mode : Constant
Frame rate : 23.976 (24000/1001) FPS
Color space : YUV
Chroma subsampling : 4:2:0
Bit depth : 8 bits
Scan type : Progressive
Bits/(Pixel*Frame) : 0.065
Stream size : 849 MiB (94%)
Default : Yes
Forced : No
Color range : Limited
Color primaries : BT.709
Transfer characteristics : BT.709

Audio
ID : 2
Format : AAC LC SBR
Commercial name : HE-AAC
Format settings : Explicit
Codec ID : A_AAC-2
Duration : 1 h 50 min
Bit rate : 64.0 kb/s
Channel(s) : 2 channels
Channel layout : L R
Sampling rate : 48.0 kHz
Frame rate : 23.438 FPS (2048 SPF)
Compression mode : Lossy
Delay relative to video : 43 ms
Stream size : 50.4 MiB (6%)
Language : English
Default : Yes
Forced : No

Text
ID : 3
Format : UTF-8
Codec ID : S_TEXT/UTF8
Codec ID/Info : UTF-8 Plain Text
Duration : 1 h 49 min
Bit rate : 69 b/s
Count of elements : 1895
Stream size : 55.6 KiB (0%)
Title : ENG
Language : English
Default : Yes
Forced : No

[collapse]
Download Link(s)

Download

Direct download files get automatically deleted after a month or so. Posted on : 02/24/2019

[collapse]
Magnet Link

Magnet

O.G.2018.1080p.AMZN.WEBRip.DDP5.1.x264-CM-2.96 GB

[collapse]

You may also like...

error: nah :p~