Ode to Joy (2019)

R | 1h 37min | Comedy | 9 August 2019 (USA)

Charlie suffers from cataplexy, a symptom of narcolepsy that causes sudden bouts of paralysis whenever he experiences strong emotions — in particular, joy. He develops a variety of techniques to deny himself too much pleasure and happiness, but they’re put to the ultimate test when he falls in love.

Watch trailer

Media information

General
Format : Matroska
Format version : Version 4
File size : 728 MiB
Duration : 1 h 37 min
Overall bit rate : 1 041 kb/s
Movie name : Ode.to.Joy.2019.720p.WEB-DL.2CH.x265.HEVC
Encoded date : UTC 2019-08-11 13:35:51
Writing application : mkvmerge v36.0.0 (‘Is That Jazz?’) 32-bit
Writing library : libebml v1.3.9 + libmatroska v1.5.2

Video
ID : 1
Format : HEVC
Format/Info : High Efficiency Video Coding
Format profile : [email protected]@Main
Codec ID : V_MPEGH/ISO/HEVC
Duration : 1 h 37 min
Bit rate : 975 kb/s
Width : 1 280 pixels
Height : 528 pixels
Display aspect ratio : 2.40:1
Frame rate mode : Constant
Frame rate : 23.976 (24000/1001) FPS
Color space : YUV
Chroma subsampling : 4:2:0
Bit depth : 8 bits
Bits/(Pixel*Frame) : 0.060
Stream size : 682 MiB (94%)
Default : Yes
Forced : No

Audio
ID : 2
Format : AAC LC SBR
Commercial name : HE-AAC
Format settings : Explicit
Codec ID : A_AAC-2
Duration : 1 h 37 min
Bit rate : 63.8 kb/s
Channel(s) : 2 channels
Channel layout : L R
Sampling rate : 48.0 kHz
Frame rate : 23.438 FPS (2048 SPF)
Compression mode : Lossy
Delay relative to video : 23 ms
Stream size : 44.6 MiB (6%)
Language : English
Default : Yes
Forced : No

Text #1
ID : 3
Format : UTF-8
Codec ID : S_TEXT/UTF8
Codec ID/Info : UTF-8 Plain Text
Duration : 1 h 35 min
Bit rate : 87 b/s
Count of elements : 1936
Stream size : 61.5 KiB (0%)
Language : English
Default : Yes
Forced : No

Text #2
ID : 4
Format : UTF-8
Codec ID : S_TEXT/UTF8
Codec ID/Info : UTF-8 Plain Text
Duration : 1 h 36 min
Bit rate : 89 b/s
Count of elements : 2055
Stream size : 63.5 KiB (0%)
Title : SDH
Language : English
Default : No
Forced : No

[collapse]
Download Link(s)

Download

Direct download files get automatically deleted after a month or so. Posted on : 08/11/2019

[collapse]
Magnet Link

Magnet

Ode.to.Joy.2019.1080p.WEB-DL.DD5.1.H264-FGT-3.39 GB

[collapse]

You may also like...

error: nah :p~