Oscar (1991)

PG | 1h 49min | Comedy , Crime | 26 April 1991 (USA)

A gangster attempts to keep the promise he made to his dying father: that he would give up his life of crime and “go straight”.

Watch trailer

Media information

General
Format : Matroska
Format version : Version 4
File size : 1 001 MiB
Duration : 1 h 49 min
Overall bit rate : 1 277 kb/s
Movie name : Oscar.1991.720p.BluRay.2CH.x264.AVC
Encoded date : UTC 2018-09-30 13:53:54
Writing application : mkvmerge v27.0.0 (‘Metropolis’) 32-bit
Writing library : libebml v1.3.6 + libmatroska v1.4.9

Video
ID : 2
Format : AVC
Format/Info : Advanced Video Codec
Format profile : [email protected]
Format settings : CABAC / 9 Ref Frames
Format settings, CABAC : Yes
Format settings, RefFrames : 9 frames
Codec ID : V_MPEG4/ISO/AVC
Duration : 1 h 49 min
Bit rate : 1 176 kb/s
Width : 1 280 pixels
Height : 696 pixels
Display aspect ratio : 1.85:1
Frame rate mode : Constant
Frame rate : 23.976 (24000/1001) FPS
Color space : YUV
Chroma subsampling : 4:2:0
Bit depth : 8 bits
Scan type : Progressive
Bits/(Pixel*Frame) : 0.055
Stream size : 921 MiB (92%)
Default : Yes
Forced : No

Audio
ID : 1
Format : AAC LC SBR
Commercial name : HE-AAC
Format settings : Explicit
Codec ID : A_AAC-2
Duration : 1 h 49 min
Bit rate : 100.0 kb/s
Channel(s) : 2 channels
Channel layout : L R
Sampling rate : 48.0 kHz
Frame rate : 23.438 FPS (2048 SPF)
Compression mode : Lossy
Delay relative to video : 31 ms
Stream size : 78.4 MiB (8%)
Language : English
Default : Yes
Forced : No

Text
ID : 3
Format : UTF-8
Codec ID : S_TEXT/UTF8
Codec ID/Info : UTF-8 Plain Text
Duration : 1 h 42 min
Bit rate : 77 b/s
Count of elements : 1332
Stream size : 58.1 KiB (0%)
Language : English
Default : Yes
Forced : No

[collapse]
Download Link(s)

Download

Direct download files get automatically deleted after a month or so. Posted on : 09/30/2018

[collapse]
Magnet Link

Magnet

Source : Oscar.1991.720p.BluRay.X264-AMIABLE-6.56 GB

[collapse]

You may also like...

error: nah :p~