Ouija Seance: The Final Game (2018)

PG-13 | 1h 21min | Horror, Thriller | 21 October 2016 (USA)

Sarah and her friends decide to spend the weekend at an old villa Sarah mysteriously inherited. After finding a Ouija Board in the attic, Sarah and her friends unknowingly awaken an evil force connected to the villa’s hidden secrets. To fight the unimaginable horror, they will have to face their darkest fears and worst nightmares.

Watch trailer

Media information

General
Format : Matroska
Format version : Version 4 / Version 2
File size : 518 MiB
Duration : 1 h 21 min
Overall bit rate : 888 kb/s
Movie name : Ouija.Seance.The.Final.Game.2018.720p.WEB-DL.2CH.x265.HEVC
Encoded date : UTC 2018-07-03 15:24:56
Writing application : mkvmerge v24.0.0 (‘Beyond The Pale’) 32-bit
Writing library : libebml v1.3.6 + libmatroska v1.4.9

Video
ID : 1
Format : HEVC
Format/Info : High Efficiency Video Coding
Format profile : [email protected]@Main
Codec ID : V_MPEGH/ISO/HEVC
Duration : 1 h 21 min
Bit rate : 819 kb/s
Width : 1 280 pixels
Height : 528 pixels
Display aspect ratio : 2.40:1
Frame rate mode : Constant
Frame rate : 25.000 FPS
Color space : YUV
Chroma subsampling : 4:2:0
Bit depth : 8 bits
Bits/(Pixel*Frame) : 0.048
Stream size : 477 MiB (92%)
Default : Yes
Forced : No

Audio
ID : 2
Format : AAC
Format/Info : Advanced Audio Codec
Format profile : HE-AAC / LC
Format settings : Explicit
Codec ID : A_AAC-2
Duration : 1 h 21 min
Bit rate : 67.6 kb/s
Channel(s) : 2 channels
Channel positions : Front: L R
Sampling rate : 48.0 kHz / 24.0 kHz
Frame rate : 23.438 FPS (1024 SPF)
Compression mode : Lossy
Delay relative to video : 23 ms
Stream size : 39.4 MiB (8%)
Language : English
Default : Yes
Forced : No

Text
ID : 3
Format : UTF-8
Codec ID : S_TEXT/UTF8
Codec ID/Info : UTF-8 Plain Text
Duration : 1 h 17 min
Bit rate : 50 b/s
Count of elements : 1058
Stream size : 28.8 KiB (0%)
Language : English
Default : Yes
Forced : No

[collapse]
Download Link(s)

Download

Direct download files get automatically deleted after a month or so. Posted on : 07/03/2018

[collapse]
Magnet Link

Magnet

Source : Ouija.Seance.The.Final.Game.2018.1080p.WEB-DL.DD5.1.H264-FGT-2.81 GB

[collapse]

You may also like...

error: nah :p~