Outbreak (1995)

R | 2h 7min | Action, Drama, Thriller | 10 March 1995 (USA)

Army doctors struggle to find a cure for a deadly virus spreading throughout a California town that was brought to America by an African monkey.

Watch trailer

Media information

General
Format : Matroska
Format version : Version 4
File size : 819 MiB
Duration : 2 h 8 min
Overall bit rate : 893 kb/s
Movie name : Outbreak.1995.720p.BluRay.2CH.x265.HEVC
Encoded date : UTC 2019-07-06 15:53:09
Writing application : mkvmerge v35.0.0 (‘All The Love In The World’) 32-bit
Writing library : libebml v1.3.9 + libmatroska v1.5.2

Video
ID : 1
Format : HEVC
Format/Info : High Efficiency Video Coding
Format profile : [email protected]@Main
Codec ID : V_MPEGH/ISO/HEVC
Duration : 2 h 8 min
Bit rate : 827 kb/s
Width : 1 280 pixels
Height : 720 pixels
Display aspect ratio : 16:9
Frame rate mode : Constant
Frame rate : 23.976 (24000/1001) FPS
Color space : YUV
Chroma subsampling : 4:2:0
Bit depth : 8 bits
Bits/(Pixel*Frame) : 0.037
Stream size : 758 MiB (93%)
Default : Yes
Forced : No
Color range : Limited
Color primaries : BT.709
Transfer characteristics : BT.709
Matrix coefficients : BT.709

Audio
ID : 2
Format : AAC LC
Codec ID : A_AAC-2
Duration : 2 h 8 min
Bit rate : 64.2 kb/s
Channel(s) : 2 channels
Channel layout : L R
Sampling rate : 48.0 kHz
Frame rate : 46.875 FPS (1024 SPF)
Compression mode : Lossy
Delay relative to video : -21 ms
Stream size : 58.9 MiB (7%)
Title : Stereo
Language : English
Default : Yes
Forced : No

Text
ID : 3
Format : ASS
Codec ID : S_TEXT/ASS
Duration : 2 h 7 min
Bit rate : 108 b/s
Count of elements : 1677
Compression mode : Lossless
Stream size : 101 KiB (0%)
Language : English
Default : Yes
Forced : Yes

[collapse]
Download Link(s)

Download

[RE-UP]-Direct download files get automatically deleted after a month or so. Posted on: 10/17/2019

[collapse]
Magnet Link

Magnet

Outbreak.1995.1080p.BluRay.x264-TiMELORDS-7.95 GB

[collapse]

You may also like...

error: nah :p~