Paradox (2017)

Sha po lang: taam long (original title) | 1h 41min | Action | 25 August 2017 (Hong Kong)

Hong Kong police negotiator Lee Chung-Chi has learned that his 16 year old daughter Wing-Chi has disappeared while in Thailand. He travels to Thailand and teams up with Chinese officer Tsui Kit and his partner, Tak, as they face off against American gangster Sacha, who is operating a black market organ smuggling ring. A series of clues lead Chung-Chi to not only learn the fate of his daughter, but overcome the odds to stop the ring once and for all.

Watch trailer

Media information

General
Format : Matroska
Format version : Version 4 / Version 2
File size : 952 MiB
Duration : 1 h 39 min
Overall bit rate : 1 336 kb/s
Movie name : Paradox.2017.720p.BRRip
Encoded date : UTC 2018-01-04 13:04:54
Writing application : mkvmerge v19.0.0 (‘Brave Captain’) 32-bit
Writing library : libebml v1.3.5 + libmatroska v1.4.8

Video
ID : 2
Format : AVC
Format/Info : Advanced Video Codec
Format profile : [email protected]
Format settings : CABAC / 9 Ref Frames
Format settings, CABAC : Yes
Format settings, RefFrames : 9 frames
Codec ID : V_MPEG4/ISO/AVC
Duration : 1 h 39 min
Bit rate : 1 235 kb/s
Width : 1 280 pixels
Height : 544 pixels
Display aspect ratio : 2.35:1
Frame rate mode : Constant
Frame rate : 24.000 FPS
Color space : YUV
Chroma subsampling : 4:2:0
Bit depth : 8 bits
Scan type : Progressive
Bits/(Pixel*Frame) : 0.074
Stream size : 880 MiB (92%)
Writing library : x264 core 133 r2334 a3ac64b
Default : Yes
Forced : No

Audio
ID : 1
Format : AAC
Format/Info : Advanced Audio Codec
Format profile : HE-AAC / LC
Format settings : Explicit
Codec ID : A_AAC-2
Duration : 1 h 39 min
Bit rate : 100.0 kb/s
Channel(s) : 2 channels
Channel positions : Front: L R
Sampling rate : 48.0 kHz / 24.0 kHz
Frame rate : 23.438 FPS (1024 SPF)
Compression mode : Lossy
Delay relative to video : 31 ms
Stream size : 71.3 MiB (7%)
Language : Chinese
Default : Yes
Forced : No

Text #1
ID : 3
Format : UTF-8
Codec ID : S_TEXT/UTF8
Codec ID/Info : UTF-8 Plain Text
Duration : 1 h 33 min
Bit rate : 19 b/s
Count of elements : 673
Stream size : 13.4 KiB (0%)
Language : English
Default : Yes
Forced : No

Text #2
ID : 4
Format : UTF-8
Codec ID : S_TEXT/UTF8
Codec ID/Info : UTF-8 Plain Text
Duration : 1 h 33 min
Bit rate : 18 b/s
Count of elements : 672
Stream size : 12.9 KiB (0%)
Title : Simplified
Language : Chinese
Default : No
Forced : No

Text #3
ID : 5
Format : UTF-8
Codec ID : S_TEXT/UTF8
Codec ID/Info : UTF-8 Plain Text
Duration : 1 h 33 min
Bit rate : 18 b/s
Count of elements : 672
Stream size : 12.9 KiB (0%)
Title : Traditional
Language : Chinese
Default : No
Forced : No

[collapse]
Download Link(s)

Download

Direct download files get automatically deleted after a month or so. Posted on : 01/04/2018

[collapse]
Magnet Link

Magnet

Source : Paradox.2017.1080p.BluRay.x264.DD5.1-CHD-7.15 GB

[collapse]

Release notes

Language : Chinese

Subtitles: English

[collapse]

You may also like...

error: nah :p~