Parasite (2019)

Gisaengchung (original title)|2h 12min | Comedy, Drama, Thriller | 11 October 2019 (USA)

All unemployed, Ki-taek’s family takes peculiar interest in the wealthy and glamorous Parks for their livelihood until they get entangled in an unexpected incident.

Watch trailer

Media information

General
Format : Matroska
Format version : Version 4
File size : 719 MiB
Duration : 2 h 12 min
Overall bit rate : 761 kb/s
Movie name : Parasite.A.K.A.Gisaengchung.2019.KOREAN.INTERNAL.720p.WEBRip.2CH.x265.HEVC
Encoded date : UTC 2019-08-12 19:27:58
Writing application : mkvmerge v36.0.0 (‘Is That Jazz?’) 32-bit
Writing library : libebml v1.3.9 + libmatroska v1.5.2

Video
ID : 1
Format : HEVC
Format/Info : High Efficiency Video Coding
Format profile : [email protected]@Main
Codec ID : V_MPEGH/ISO/HEVC
Duration : 2 h 12 min
Bit rate : 691 kb/s
Width : 1 280 pixels
Height : 536 pixels
Display aspect ratio : 2.40:1
Frame rate mode : Constant
Frame rate : 23.976 (24000/1001) FPS
Color space : YUV
Chroma subsampling : 4:2:0
Bit depth : 8 bits
Bits/(Pixel*Frame) : 0.042
Stream size : 653 MiB (91%)
Default : Yes
Forced : No

Audio
ID : 2
Format : AAC LC SBR
Commercial name : HE-AAC
Format settings : Explicit
Codec ID : A_AAC-2
Duration : 2 h 12 min
Bit rate : 67.8 kb/s
Channel(s) : 2 channels
Channel layout : L R
Sampling rate : 48.0 kHz
Frame rate : 23.438 FPS (2048 SPF)
Compression mode : Lossy
Delay relative to video : 23 ms
Stream size : 64.0 MiB (9%)
Language : Korean
Default : Yes
Forced : No

Text
ID : 3
Format : UTF-8
Codec ID : S_TEXT/UTF8
Codec ID/Info : UTF-8 Plain Text
Duration : 2 h 6 min
Bit rate : 53 b/s
Count of elements : 1648
Stream size : 49.4 KiB (0%)
Language : English
Default : Yes
Forced : No

[collapse]
Download Link(s)

Download

Direct download files get automatically deleted after a month or so. Posted on : 08/13/2019

[collapse]
Magnet Link

Magnet

Parasite.2019.KOREAN.1080p.WEBRip.x264.AAC2.0-NOGRP-5.02 GB

[collapse]

You may also like...

error: nah :p~