Peninsula (2020)

Train to Busan 2 (original title)|Not Rated | 1h 56min | Action, Horror, Thriller | 7 August 2020 (USA)

Sequel to the 2016 South Korean zombie film Train to Busan (2016).

Watch trailer

Media information

General
Format : Matroska
Format version : Version 4
File size : 837 MiB
Duration : 1 h 55 min
Overall bit rate : 1 010 kb/s
Movie name : Peninsula.A.K.A.Train.to.Busan.2.2020.KOREAN.720p.WEBRip.2CH.x265.HEVC

Video
ID : 1
Format : HEVC
Format/Info : High Efficiency Video Coding
Format profile : [email protected]@Main
Codec ID : V_MPEGH/ISO/HEVC
Duration : 1 h 55 min
Bit rate : 935 kb/s
Width : 1 280 pixels
Height : 536 pixels
Display aspect ratio : 2.40:1
Frame rate mode : Constant
Frame rate : 23.976 (24000/1001) FPS
Color space : YUV
Chroma subsampling : 4:2:0
Bit depth : 8 bits
Bits/(Pixel*Frame) : 0.057
Stream size : 775 MiB (93%)
Default : Yes
Forced : No
Color range : Limited
Color primaries : BT.709
Transfer characteristics : BT.709
Matrix coefficients : BT.709

Audio
ID : 2
Format : AAC LC SBR
Commercial name : HE-AAC
Format settings : Explicit
Codec ID : A_AAC-2
Duration : 1 h 55 min
Bit rate : 72.0 kb/s
Channel(s) : 2 channels
Channel layout : L R
Sampling rate : 48.0 kHz
Frame rate : 23.438 FPS (2048 SPF)
Compression mode : Lossy
Delay relative to video : 23 ms
Stream size : 60.2 MiB (7%)
Language : Korean
Default : Yes
Forced : No

Text #1
ID : 3
Format : UTF-8
Codec ID : S_TEXT/UTF8
Codec ID/Info : UTF-8 Plain Text
Duration : 1 h 49 min
Bit rate : 24 b/s
Count of elements : 852
Stream size : 19.4 KiB (0%)
Language : English
Default : No
Forced : No

Text #2
ID : 4
Format : UTF-8
Codec ID : S_TEXT/UTF8
Codec ID/Info : UTF-8 Plain Text
Duration : 1 h 49 min
Bit rate : 30 b/s
Count of elements : 1012
Stream size : 24.2 KiB (0%)
Title : SDH
Language : English
Default : Yes
Forced : No

[collapse]
Download Link(s)

Download

Direct download files get automatically deleted after a month or so. Posted on : 08/25/2020

[collapse]
Magnet Link

Magnet

Train.to.Busan.2.Peninsula.2020.KOREAN.1080p.WEBRip.DD5.1.x264-CM-4.16 GB

[collapse]

You may also like...

error: nah :p~