Peppermint (2018)

R | 1h 41min | Action , Drama , Thriller | 7 September 2018 (USA)

Five years after her husband and daughter are killed in a senseless act of violence, a woman comes back from self-imposed exile to seek revenge against those responsible and the system that let them go free.

Watch trailer

Media information

General
Format : Matroska
Format version : Version 4
File size : 688 MiB
Duration : 1 h 42 min
Overall bit rate : 943 kb/s
Movie name : Peppermint.2018.720p.BrRip.2CH.x265.HEVC
Encoded date : UTC 2018-12-08 14:44:30
Writing application : mkvmerge v29.0.0 (‘Like It Or Not’) 32-bit
Writing library : libebml v1.3.6 + libmatroska v1.4.9

Video
ID : 1
Format : HEVC
Format/Info : High Efficiency Video Coding
Format profile : [email protected]@Main
Codec ID : V_MPEGH/ISO/HEVC
Duration : 1 h 42 min
Bit rate : 870 kb/s
Width : 1 280 pixels
Height : 536 pixels
Display aspect ratio : 2.40:1
Frame rate mode : Constant
Frame rate : 23.976 (24000/1001) FPS
Color space : YUV
Chroma subsampling : 4:2:0
Bit depth : 8 bits
Bits/(Pixel*Frame) : 0.053
Stream size : 635 MiB (92%)
Default : Yes
Forced : No

Audio
ID : 2
Format : AAC LC SBR
Commercial name : HE-AAC
Format settings : Explicit
Codec ID : A_AAC-2
Duration : 1 h 42 min
Bit rate : 72.0 kb/s
Channel(s) : 2 channels
Channel layout : L R
Sampling rate : 48.0 kHz
Frame rate : 23.438 FPS (2048 SPF)
Compression mode : Lossy
Delay relative to video : 23 ms
Stream size : 51.9 MiB (8%)
Language : English
Default : Yes
Forced : No

Text #1
ID : 3
Format : UTF-8
Codec ID : S_TEXT/UTF8
Codec ID/Info : UTF-8 Plain Text
Duration : 1 h 33 min
Bit rate : 49 b/s
Count of elements : 1024
Stream size : 34.3 KiB (0%)
Title : ENG
Language : English
Default : Yes
Forced : No

Text #2
ID : 4
Format : UTF-8
Codec ID : S_TEXT/UTF8
Codec ID/Info : UTF-8 Plain Text
Duration : 1 h 33 min
Bit rate : 57 b/s
Count of elements : 1266
Stream size : 39.1 KiB (0%)
Title : ENG SDH
Language : English
Default : No
Forced : No

[collapse]
Download Link(s)

Download

Direct download files get automatically deleted after a month or so. Posted on : 12/08/2018

[collapse]
Magnet Link

Magnet

Peppermint.2018.1080p.BluRay.x264-SPARKS-7.66 GB

[collapse]

Media information

General
Format : Matroska
Format version : Version 4
File size : 632 MiB
Duration : 1 h 41 min
Overall bit rate : 869 kb/s
Movie name : Peppermint.2018.720p.WEB-DL.2CH.x265.HEVC
Encoded date : UTC 2018-11-20 14:52:47
Writing application : mkvmerge v28.2.0 (‘The Awakening’) 32-bit
Writing library : libebml v1.3.6 + libmatroska v1.4.9

Video
ID : 1
Format : HEVC
Format/Info : High Efficiency Video Coding
Format profile : [email protected]@Main
Codec ID : V_MPEGH/ISO/HEVC
Duration : 1 h 41 min
Bit rate : 795 kb/s
Width : 1 280 pixels
Height : 536 pixels
Display aspect ratio : 2.40:1
Frame rate mode : Constant
Frame rate : 23.976 (24000/1001) FPS
Color space : YUV
Chroma subsampling : 4:2:0
Bit depth : 8 bits
Bits/(Pixel*Frame) : 0.048
Stream size : 578 MiB (91%)
Default : Yes
Forced : No

Audio
ID : 2
Format : AAC LC SBR
Commercial name : HE-AAC
Format settings : Explicit
Codec ID : A_AAC-2
Duration : 1 h 41 min
Bit rate : 72.0 kb/s
Channel(s) : 2 channels
Channel layout : L R
Sampling rate : 48.0 kHz
Frame rate : 23.438 FPS (2048 SPF)
Compression mode : Lossy
Delay relative to video : 23 ms
Stream size : 52.6 MiB (8%)
Language : English
Default : Yes
Forced : No

Text
ID : 3
Format : UTF-8
Codec ID : S_TEXT/UTF8
Codec ID/Info : UTF-8 Plain Text
Duration : 1 h 34 min
Bit rate : 49 b/s
Count of elements : 1106
Stream size : 34.3 KiB (0%)
Language : English
Default : Yes
Forced : No

[collapse]
Download Link(s)

Download

Direct download files get automatically deleted after a month or so. Posted on : 11/20/2018

[collapse]
Magnet Link

Magnet

Peppermint.2018.1080p.WEB-DL.DD5.1.H264-FGT-3.52 GB

[collapse]

You may also like...

error: nah :p~