Perdida (2018)

TV-MA | Crime, Drama, Mystery | 9 August 2018 (USA)

It is based on the novel by Florencia Etcheves “Cornelia”, in which a teacher from a prestigious school in Buenos Aires makes a study trip with five of her students, but only returns with four because one of them disappears mysteriously. It is Cornelia Villalba, who escapes with her companions to go dancing and gets lost in the middle of the Patagonian forests.

Watch trailer

Media information

General
Format : Matroska
Format version : Version 4 / Version 2
File size : 839 MiB
Duration : 1 h 43 min
Overall bit rate : 1 131 kb/s
Movie name : Perdida.2018.720p.WEB-DL.2CH.x264.AVC
Encoded date : UTC 2018-08-10 16:02:37
Writing application : mkvmerge v25.0.0 (‘Prog Noir’) 32-bit
Writing library : libebml v1.3.6 + libmatroska v1.4.9

Video
ID : 1
Format : AVC
Format/Info : Advanced Video Codec
Format profile : [email protected]
Format settings : CABAC / 4 Ref Frames
Format settings, CABAC : Yes
Format settings, RefFrames : 4 frames
Codec ID : V_MPEG4/ISO/AVC
Duration : 1 h 43 min
Bit rate : 1 000 kb/s
Width : 1 280 pixels
Height : 534 pixels
Display aspect ratio : 2.40:1
Frame rate mode : Constant
Frame rate : 23.976 (24000/1001) FPS
Color space : YUV
Chroma subsampling : 4:2:0
Bit depth : 8 bits
Scan type : Progressive
Bits/(Pixel*Frame) : 0.061
Stream size : 742 MiB (88%)
Default : Yes
Forced : No
Color range : Limited
Color primaries : BT.709
Transfer characteristics : BT.709
Matrix coefficients : BT.709

Audio
ID : 2
Format : AAC
Format/Info : Advanced Audio Codec
Format profile : HE-AAC / LC
Format settings : NBC
Codec ID : A_AAC-5
Duration : 1 h 43 min
Bit rate : 128 kb/s
Channel(s) : 2 channels
Channel positions : Front: L R
Sampling rate : 48.0 kHz / 24.0 kHz
Frame rate : 23.438 FPS (1024 SPF)
Compression mode : Lossy
Delay relative to video : -105 ms
Stream size : 95.0 MiB (11%)
Default : Yes
Forced : No

Text #1
ID : 3
Format : ASS
Codec ID : S_TEXT/ASS
Codec ID/Info : Advanced Sub Station Alpha
Duration : 1 h 35 min
Bit rate : 82 b/s
Count of elements : 1117
Compression mode : Lossless
Stream size : 57.9 KiB (0%)
Language : English
Default : No
Forced : No

Text #2
ID : 4
Format : ASS
Codec ID : S_TEXT/ASS
Codec ID/Info : Advanced Sub Station Alpha
Duration : 1 h 36 min
Bit rate : 95 b/s
Count of elements : 1331
Compression mode : Lossless
Stream size : 67.1 KiB (0%)
Language : Spanish
Default : No
Forced : No

Text #3
ID : 5
Format : ASS
Codec ID : S_TEXT/ASS
Codec ID/Info : Advanced Sub Station Alpha
Duration : 1 h 42 min
Bit rate : 69 b/s
Count of elements : 961
Compression mode : Lossless
Stream size : 52.7 KiB (0%)
Language : Portuguese
Default : No
Forced : No

Text #4
ID : 6
Format : ASS
Codec ID : S_TEXT/ASS
Codec ID/Info : Advanced Sub Station Alpha
Duration : 1 h 42 min
Bit rate : 69 b/s
Count of elements : 956
Compression mode : Lossless
Stream size : 52.5 KiB (0%)
Language : French
Default : No
Forced : No

Text #5
ID : 7
Format : ASS
Codec ID : S_TEXT/ASS
Codec ID/Info : Advanced Sub Station Alpha
Duration : 1 h 42 min
Bit rate : 62 b/s
Count of elements : 949
Compression mode : Lossless
Stream size : 47.5 KiB (0%)
Language : Polish
Default : No
Forced : No

[collapse]
Download Link(s)

Download

Direct download files get automatically deleted after a month or so. Posted on : 08/10/2018

[collapse]
Magnet Link

Magnet

Source : Perdida.2018.1080p.NF.WEB-DL.DD5.1.x264-CMRG[TGx]-2.7 GB

[collapse]

You may also like...

error: nah :p~