Planet of the Apes (2001)

PG-13 | 1h 59min | Action, Adventure, Sci-Fi | 27 July 2001 (USA)

An Air Force astronaut crash lands on a mysterious planet where evolved, talking apes dominate a race of primitive humans.

Watch trailer

Media information

General
Format : Matroska
Format version : Version 4 / Version 2
File size : 750 MiB
Duration : 1 h 59 min
Overall bit rate : 875 kb/s
Movie name : Planet.Of.The.Apes.2001.720p.BluRay.2CH.x265.HEVC
Encoded date : UTC 2018-06-26 16:39:52
Writing application : mkvmerge v24.0.0 (‘Beyond The Pale’) 32-bit
Writing library : libebml v1.3.6 + libmatroska v1.4.9

Video
ID : 3
Format : HEVC
Format/Info : High Efficiency Video Coding
Format profile : [email protected]@Main
Codec ID : V_MPEGH/ISO/HEVC
Duration : 1 h 59 min
Bit rate : 809 kb/s
Width : 1 280 pixels
Height : 544 pixels
Display aspect ratio : 2.35:1
Original display aspect ratio : 2.35:1
Frame rate mode : Constant
Frame rate : 23.976 (24000/1001) FPS
Color space : YUV
Chroma subsampling : 4:2:0
Bit depth : 8 bits
Bits/(Pixel*Frame) : 0.048
Stream size : 694 MiB (92%)
Default : Yes
Forced : No
Color range : Limited
Color primaries : BT.709
Transfer characteristics : BT.709
Matrix coefficients : BT.709

Audio
ID : 1
Format : AAC
Format/Info : Advanced Audio Codec
Format profile : HE-AAC / LC
Format settings : Explicit
Codec ID : A_AAC-2
Duration : 1 h 59 min
Bit rate : 64.0 kb/s
Channel(s) : 2 channels
Channel positions : Front: L R
Sampling rate : 48.0 kHz / 24.0 kHz
Frame rate : 23.438 FPS (1024 SPF)
Compression mode : Lossy
Delay relative to video : -4 ms
Stream size : 54.9 MiB (7%)
Default : Yes
Forced : No

Text
ID : 2
Format : UTF-8
Codec ID : S_TEXT/UTF8
Codec ID/Info : UTF-8 Plain Text
Duration : 1 h 52 min
Bit rate : 31 b/s
Count of elements : 797
Stream size : 25.7 KiB (0%)
Default : Yes
Forced : No

[collapse]
Download Link(s)

Download

[RE-UP] – Direct download files get automatically deleted after a month or so. Posted on : 06/26/2018

[collapse]
Magnet Link

Magnet

Source : Planet.Of.The.Apes.2001.1080p.BluRay.x264-FSiHD-8.73 GB

[collapse]

You may also like...

error: nah :p~