Pornocracy: The New Sex Multinationals (2017)

Pornocratie: Les nouvelles multinationales du sexe (original title)|1h 17min | Documentary | TV Movie 18 January 2017

The wonders of internet has made the shady industry of pornography rich, but is now in death cramps due to the piracy ruining the market, and forcing the participants to perform more extreme sex.

Watch trailer

Media information

General
Format : Matroska
Format version : Version 4 / Version 2
File size : 745 MiB
Duration : 1 h 21 min
Overall bit rate : 1 286 kb/s
Movie name : Pornocracy.The.New.Sex.Multinationals.2018.UNCENSORED.1080p.HDRip.2CH.x265.HEVC
Encoded date : UTC 2018-07-20 20:17:42
Writing application : mkvmerge v25.0.0 (‘Prog Noir’) 32-bit
Writing library : libebml v1.3.6 + libmatroska v1.4.9

Video
ID : 1
Format : HEVC
Format/Info : High Efficiency Video Coding
Format profile : [email protected]@Main
Codec ID : V_MPEGH/ISO/HEVC
Duration : 1 h 21 min
Bit rate : 1 155 kb/s
Width : 1 908 pixels
Height : 816 pixels
Display aspect ratio : 2.35:1
Frame rate mode : Constant
Frame rate : 23.976 (24000/1001) FPS
Color space : YUV
Chroma subsampling : 4:2:0
Bit depth : 8 bits
Bits/(Pixel*Frame) : 0.031
Stream size : 670 MiB (90%)
Language : English
Default : Yes
Forced : No

Audio
ID : 2
Format : AAC
Format/Info : Advanced Audio Codec
Format profile : LC
Codec ID : A_AAC-2
Duration : 1 h 21 min
Bit rate : 128 kb/s
Channel(s) : 2 channels
Channel positions : Front: L R
Sampling rate : 48.0 kHz
Frame rate : 46.875 FPS (1024 SPF)
Compression mode : Lossy
Delay relative to video : -42 ms
Stream size : 74.3 MiB (10%)
Language : English
Default : Yes
Forced : No

Text
ID : 3
Format : ASS
Codec ID : S_TEXT/ASS
Codec ID/Info : Advanced Sub Station Alpha
Duration : 1 h 17 min
Bit rate : 100 b/s
Count of elements : 1008
Compression mode : Lossless
Stream size : 56.5 KiB (0%)
Language : English
Default : Yes
Forced : No

[collapse]
Download Link(s)

Download

Direct download files get automatically deleted after a month or so. Posted on : 07/21/2018

[collapse]
Magnet Link

Magnet

Source : Pornocracy.The.New.Sex.Multinationals.2017.DOCU.1080p.WEB-DL.AAC2.0.H264-FGT-2.64 GB

[collapse]

You may also like...

error: nah :p~