Predators (2010)

R | 1h 47min | Action, Adventure, Sci-Fi | 9 July 2010 (USA)

A group of elite warriors parachute into an unfamiliar jungle and are hunted by members of a merciless alien race.

Watch trailer

Media information

General
Format : Matroska
Format version : Version 4 / Version 2
File size : 2.25 GiB
Duration : 1 h 46 min
Overall bit rate : 3 012 kb/s
Movie name : Predators.2010.1080p.10bit.BluRay.6CH.x265.HEVC
Encoded date : UTC 2018-08-11 08:13:11
Writing application : mkvmerge v25.0.0 (‘Prog Noir’) 32-bit
Writing library : libebml v1.3.6 + libmatroska v1.4.9

Video
ID : 1
Format : HEVC
Format/Info : High Efficiency Video Coding
Format profile : Main [email protected]@Main
Codec ID : V_MPEGH/ISO/HEVC
Duration : 1 h 46 min
Bit rate : 2 562 kb/s
Width : 1 920 pixels
Height : 816 pixels
Display aspect ratio : 2.35:1
Frame rate mode : Constant
Frame rate : 23.976 (24000/1001) FPS
Color space : YUV
Chroma subsampling : 4:2:0
Bit depth : 10 bits
Bits/(Pixel*Frame) : 0.068
Stream size : 1.91 GiB (85%)
Default : Yes
Forced : No

Audio
ID : 2
Format : AC-3
Format/Info : Audio Coding 3
Codec ID : A_AC3
Duration : 1 h 46 min
Bit rate mode : Constant
Bit rate : 448 kb/s
Channel(s) : 6 channels
Channel positions : Front: L C R, Side: L R, LFE
Sampling rate : 48.0 kHz
Frame rate : 31.250 FPS (1536 SPF)
Bit depth : 16 bits
Compression mode : Lossy
Stream size : 342 MiB (15%)
Service kind : Complete Main
Default : Yes
Forced : No

Text
ID : 3
Format : UTF-8
Codec ID : S_TEXT/UTF8
Codec ID/Info : UTF-8 Plain Text
Duration : 1 h 45 min
Bit rate : 27 b/s
Count of elements : 1000
Stream size : 21.1 KiB (0%)
Title : ENG_SDH
Language : English
Default : Yes
Forced : No

[collapse]
Download Link(s)

Part01 Part02 Part03

Direct download files get automatically deleted after a month or so. Posted on : 08/11/2018

[collapse]
Magnet Link

Magnet

Source : Predators.2010.REMASTERED.1080p.BluRay.x264.DTS-SWTYBLZ-9.02 GB

[collapse]

Media information

General
Format : Matroska
Format version : Version 4 / Version 2
File size : 543 MiB
Duration : 1 h 46 min
Overall bit rate : 710 kb/s
Movie name : Predators.2010.720p.BluRay.2CH.x265.HEVC
Encoded date : UTC 2018-08-11 08:10:38
Writing application : mkvmerge v25.0.0 (‘Prog Noir’) 32-bit
Writing library : libebml v1.3.6 + libmatroska v1.4.9

Video
ID : 1
Format : HEVC
Format/Info : High Efficiency Video Coding
Format profile : [email protected]@Main
Codec ID : V_MPEGH/ISO/HEVC
Duration : 1 h 46 min
Bit rate : 622 kb/s
Width : 1 280 pixels
Height : 544 pixels
Display aspect ratio : 2.35:1
Frame rate mode : Constant
Frame rate : 23.976 (24000/1001) FPS
Color space : YUV
Chroma subsampling : 4:2:0
Bit depth : 8 bits
Bits/(Pixel*Frame) : 0.037
Stream size : 476 MiB (88%)
Default : Yes
Forced : No
Color range : Limited
Color primaries : BT.709
Transfer characteristics : BT.709
Matrix coefficients : BT.709

Audio
ID : 2
Format : Opus
Codec ID : A_OPUS
Duration : 1 h 46 min
Bit rate : 86.0 kb/s
Channel(s) : 2 channels
Channel positions : Front: L R
Sampling rate : 48.0 kHz
Frame rate : 50.000 FPS (960 SPF)
Compression mode : Lossy
Stream size : 65.7 MiB (12%)
Title : Stereo
Default : Yes
Forced : No

Text
ID : 3
Format : ASS
Codec ID : S_TEXT/ASS
Codec ID/Info : Advanced Sub Station Alpha
Duration : 1 h 45 min
Bit rate : 55 b/s
Count of elements : 1000
Compression mode : Lossless
Stream size : 43.4 KiB (0%)
Language : English
Default : Yes
Forced : Yes

[collapse]
Download Link(s)

Download

Direct download files get automatically deleted after a month or so. Posted on : 08/11/2018

[collapse]
Magnet Link

Magnet

Source : Predators.2010.REMASTERED.1080p.BluRay.x264.DTS-SWTYBLZ-9.02 GB

[collapse]

You may also like...

error: nah :p~