Psycho (1960)

R | 1h 49min | Horror, Mystery, Thriller | 8 September 1960 (USA)

A Phoenix secretary embezzles $40,000 from her employer’s client, goes on the run, and checks into a remote motel run by a young man under the domination of his mother.

Watch trailer

Media information

General
Format : Matroska
Format version : Version 4
File size : 2.93 GiB
Duration : 1 h 49 min
Overall bit rate : 3 848 kb/s
Movie name : Psycho.1960.UNCUT.2160p.10bit.BluRay.8CH.x265.HEVC

Video
ID : 1
Format : HEVC
Format/Info : High Efficiency Video Coding
Format profile : Main [email protected]@Main
Codec ID : V_MPEGH/ISO/HEVC
Duration : 1 h 49 min
Bit rate : 3 333 kb/s
Width : 3 840 pixels
Height : 2 076 pixels
Display aspect ratio : 1.85:1
Frame rate mode : Constant
Frame rate : 23.976 (24000/1001) FPS
Color space : YUV
Chroma subsampling : 4:2:0
Bit depth : 10 bits
Bits/(Pixel*Frame) : 0.017
Stream size : 2.54 GiB (87%)
Default : Yes
Forced : No
Color range : Limited
Color primaries : BT.2020
Transfer characteristics : PQ

Audio
ID : 2
Format : AAC LC
Codec ID : A_AAC-2
Duration : 1 h 49 min
Bit rate : 512 kb/s
Channel(s) : 8 channels
Channel layout : C L R Ls Rs Lw Rw LFE
Sampling rate : 48.0 kHz
Frame rate : 46.875 FPS (1024 SPF)
Compression mode : Lossy
Delay relative to video : -21 ms
Stream size : 399 MiB (13%)
Language : English
Default : Yes
Forced : No

Text
ID : 3
Format : UTF-8
Codec ID : S_TEXT/UTF8
Codec ID/Info : UTF-8 Plain Text
Duration : 1 h 45 min
Bit rate : 56 b/s
Count of elements : 1212
Stream size : 43.6 KiB (0%)
Language : English
Default : Yes
Forced : No

[collapse]
Download Link(s)

Part01 Part02

Direct download files get automatically deleted after a month or so. Posted on : 09/16/2020

[collapse]
Magnet Link

Magnet

Psycho.1960.UNCUT.2160p.UHD.BluRay.X265.10bit.HDR.DTS-X.7.1-GETiT-36.48 GB

[collapse]

Media information

General
Format : Matroska
Format version : Version 4
File size : 1.75 GiB
Duration : 1 h 49 min
Overall bit rate : 2 301 kb/s
Movie name : Psycho.1960.UNCUT.1080p.10bit.BluRay.7CH.x265.HEVC

Video
ID : 1
Format : HEVC
Format/Info : High Efficiency Video Coding
Format profile : Main [email protected]@Main
Codec ID : V_MPEGH/ISO/HEVC
Duration : 1 h 49 min
Bit rate : 1 850 kb/s
Width : 1 920 pixels
Height : 1 038 pixels
Display aspect ratio : 1.85:1
Frame rate mode : Constant
Frame rate : 23.976 (24000/1001) FPS
Color space : YUV
Chroma subsampling : 4:2:0
Bit depth : 10 bits
Bits/(Pixel*Frame) : 0.039
Stream size : 1.41 GiB (80%)
Default : Yes
Forced : No
Color range : Limited
Color primaries : BT.2020
Transfer characteristics : PQ

Audio
ID : 2
Format : AAC LC
Codec ID : A_AAC-2
Duration : 1 h 49 min
Bit rate : 448 kb/s
Channel(s) : 7 channels
Channel layout : L R C Cb Lb Rb Cb
Sampling rate : 48.0 kHz
Frame rate : 46.875 FPS (1024 SPF)
Compression mode : Lossy
Delay relative to video : -21 ms
Stream size : 350 MiB (19%)
Language : English
Default : Yes
Forced : No

Text
ID : 3
Format : UTF-8
Codec ID : S_TEXT/UTF8
Codec ID/Info : UTF-8 Plain Text
Duration : 1 h 45 min
Bit rate : 56 b/s
Count of elements : 1212
Stream size : 43.6 KiB (0%)
Language : English
Default : Yes
Forced : No

[collapse]
Download Link(s)

Download

Direct download files get automatically deleted after a month or so. Posted on : 09/16/2020

[collapse]
Magnet Link

Magnet

Psycho.1960.UNCUT.2160p.UHD.BluRay.X265.10bit.HDR.DTS-X.7.1-GETiT-36.48 GB

[collapse]

Media information

General
Format : Matroska
Format version : Version 4
File size : 965 MiB
Duration : 1 h 49 min
Overall bit rate : 1 237 kb/s
Movie name : Psycho.1960.UNCUT.720p.10bit.BluRay.6CH.x265.HEVC

Video
ID : 1
Format : HEVC
Format/Info : High Efficiency Video Coding
Format profile : Main [email protected]@Main
Codec ID : V_MPEGH/ISO/HEVC
Duration : 1 h 49 min
Bit rate : 851 kb/s
Width : 1 280 pixels
Height : 692 pixels
Display aspect ratio : 1.85:1
Frame rate mode : Constant
Frame rate : 23.976 (24000/1001) FPS
Color space : YUV
Chroma subsampling : 4:2:0
Bit depth : 10 bits
Bits/(Pixel*Frame) : 0.040
Stream size : 664 MiB (69%)
Default : Yes
Forced : No
Color range : Limited
Color primaries : BT.2020
Transfer characteristics : PQ

Audio
ID : 2
Format : AAC LC
Codec ID : A_AAC-2
Duration : 1 h 49 min
Bit rate : 384 kb/s
Channel(s) : 6 channels
Channel layout : C L R Ls Rs LFE
Sampling rate : 48.0 kHz
Frame rate : 46.875 FPS (1024 SPF)
Compression mode : Lossy
Delay relative to video : -21 ms
Stream size : 300 MiB (31%)
Language : English
Default : Yes
Forced : No

Text
ID : 3
Format : UTF-8
Codec ID : S_TEXT/UTF8
Codec ID/Info : UTF-8 Plain Text
Duration : 1 h 45 min
Bit rate : 56 b/s
Count of elements : 1212
Stream size : 43.6 KiB (0%)
Language : English
Default : Yes
Forced : No

[collapse]
Download Link(s)

Download

Direct download files get automatically deleted after a month or so. Posted on : 09/16/2020

[collapse]
Magnet Link

Magnet

Psycho.1960.UNCUT.2160p.UHD.BluRay.X265.10bit.HDR.DTS-X.7.1-GETiT-36.48 GB

[collapse]

You may also like...

error: nah :p~