Rammstein Deutschland-Official Video


Age-restricted video (based on Community Guidelines)

What Has Rammstein Revealed About Germany’s Soul?

Media information

General
Format : Matroska
Format version : Version 4
File size : 86.9 MiB
Duration : 9 min 22 s
Overall bit rate : 1 295 kb/s
Movie name : Rammstein. Deutschland.Official. Video
Encoded date : UTC 2019-04-03 18:01:58
Writing application : mkvmerge v32.0.0 (‘Astral Progressions’) 32-bit
Writing library : libebml v1.3.7 + libmatroska v1.5.0

Video
ID : 1
Format : VP9
Codec ID : V_VP9
Duration : 9 min 22 s
Bit rate : 1 160 kb/s
Width : 1 920 pixels
Height : 800 pixels
Display aspect ratio : 2.40:1
Frame rate mode : Constant
Frame rate : 25.000 FPS
Bits/(Pixel*Frame) : 0.030
Stream size : 77.9 MiB (90%)
Default : Yes
Forced : No

Audio
ID : 2
Format : Opus
Codec ID : A_OPUS
Duration : 9 min 22 s
Bit rate : 132 kb/s
Channel(s) : 2 channels
Channel layout : L R
Sampling rate : 48.0 kHz
Frame rate : 50.000 FPS (960 SPF)
Compression mode : Lossy
Stream size : 8.89 MiB (10%)
Language : German
Default : Yes
Forced : No

Comment: Rammstein über allen 😉

[collapse]
Download Link(s)

Download

Direct download files get automatically deleted after a month or so. Posted on : 04/03/2019

[collapse]
Rammstein - DEUTSCHLAND 2019-Single Magnet

Magnet

Title: DEUTSCHLAND – Single
Artist: Rammstein
Year: 2019
Genre: Rock
Format: MP3
BitRate: 320kbps
SampleRate: 44100Hz

File size: 12.4 MB

[collapse]
Lyrics

English

German

[collapse]
error: nah :p~