Rebel in the Rye (2017)

PG-13 | 1h 46min | Biography, Drama | 15 September 2017 (USA)

The life of celebrated but reclusive author, J.D. Salinger, who gained worldwide fame with the publication of his novel, “The Catcher in the Rye”.

Watch trailer

Media information

General
Format : Matroska
Format version : Version 4 / Version 2
File size : 643 MiB
Duration : 1 h 49 min
Overall bit rate : 824 kb/s
Movie name : Rebel.In.the.Rye.2017.720p.WEB-DL.2CH.x265.HEVC
Encoded date : UTC 2017-12-19 23:05:03
Writing application : mkvmerge v19.0.0 (‘Brave Captain’) 32-bit
Writing library : libebml v1.3.5 + libmatroska v1.4.8

Video
ID : 1
Format : HEVC
Format/Info : High Efficiency Video Coding
Format profile : [email protected]@Main
Codec ID : V_MPEGH/ISO/HEVC
Duration : 1 h 49 min
Bit rate : 753 kb/s
Width : 1 280 pixels
Height : 688 pixels
Display aspect ratio : 1.85:1
Frame rate mode : Constant
Frame rate : 23.976 (24000/1001) FPS
Color space : YUV
Chroma subsampling : 4:2:0
Bit depth : 8 bits
Bits/(Pixel*Frame) : 0.036
Stream size : 587 MiB (91%)
Default : Yes
Forced : No

Audio
ID : 2
Format : AAC
Format/Info : Advanced Audio Codec
Format profile : HE-AAC / LC
Format settings : Explicit
Codec ID : A_AAC-2
Duration : 1 h 49 min
Bit rate : 69.1 kb/s
Channel(s) : 2 channels
Channel positions : Front: L R
Sampling rate : 48.0 kHz / 24.0 kHz
Frame rate : 23.438 FPS (1024 SPF)
Compression mode : Lossy
Delay relative to video : 23 ms
Stream size : 53.9 MiB (8%)
Default : Yes
Forced : No

Text
ID : 3
Format : UTF-8
Codec ID : S_TEXT/UTF8
Codec ID/Info : UTF-8 Plain Text
Duration : 1 h 43 min
Bit rate : 79 b/s
Count of elements : 1732
Stream size : 60.3 KiB (0%)
Language : English
Default : Yes
Forced : No

[collapse]
Download Link(s)

Download

[RE-UP] Direct download files get automatically deleted after a month or so. Posted on : 03/24/2018

[collapse]
Magnet Link

Magnet

Source : Rebel.In.the.Rye.2017.1080p.WEB-DL.DD5.1.H264-FGT-4.15 GB

[collapse]

You may also like...

error: nah :p~