Resident Evil (2002)

R | 1h 40min | Action, Horror, Sci-Fi | 15 March 2002 (USA)

A special military unit fights a powerful, out-of-control supercomputer and hundreds of scientists who have mutated into flesh-eating creatures after a laboratory accident.

Watch trailer

Media information

General
Format : Matroska
Format version : Version 4
File size : 1.42 GiB
Duration : 1 h 40 min
Overall bit rate : 2 023 kb/s
Movie name : Resident.Evil.2002.1080p.10bit.BluRay.8CH.x265.HEVC

Video
ID : 1
Format : HEVC
Format/Info : High Efficiency Video Coding
Format profile : Main [email protected]@Main
Codec ID : V_MPEGH/ISO/HEVC
Duration : 1 h 40 min
Bit rate : 1 654 kb/s
Width : 1 920 pixels
Height : 1 024 pixels
Display aspect ratio : 1.85:1
Frame rate mode : Constant
Frame rate : 23.976 (24000/1001) FPS
Color space : YUV
Chroma subsampling : 4:2:0
Bit depth : 10 bits
Bits/(Pixel*Frame) : 0.035
Stream size : 1.16 GiB (82%)
Default : Yes
Forced : No

Audio
ID : 2
Format : AAC LC
Codec ID : A_AAC-2
Duration : 1 h 40 min
Bit rate : 367 kb/s
Channel(s) : 8 channels
Channel layout : C L R Ls Rs Lw Rw LFE
Sampling rate : 48.0 kHz
Frame rate : 46.875 FPS (1024 SPF)
Compression mode : Lossy
Delay relative to video : 9 ms
Stream size : 264 MiB (18%)
Language : English
Default : Yes
Forced : No

Text
ID : 3
Format : UTF-8
Codec ID : S_TEXT/UTF8
Codec ID/Info : UTF-8 Plain Text
Duration : 1 h 39 min
Bit rate : 37 b/s
Count of elements : 1056
Stream size : 27.5 KiB (0%)
Language : English
Default : Yes
Forced : No

[collapse]
Download Link(s)

Download

Direct download files get automatically deleted after a month or so. Posted on : 01/18/2021

[collapse]
Magnet Link

Magnet

Resident.Evil.2002.1080p.BluRay.x264.DTS-HD.MA.7.1-SWTYBLZ-16.24 GB

[collapse]

Media information

General
Format : Matroska
Format version : Version 4
File size : 779 MiB
Duration : 1 h 40 min
Overall bit rate : 1 083 kb/s
Movie name : Resident.Evil.2002.720p.10bit.BluRay.6CH.x265.HEVC

Video
ID : 1
Format : HEVC
Format/Info : High Efficiency Video Coding
Format profile : Main [email protected]@Main
Codec ID : V_MPEGH/ISO/HEVC
Duration : 1 h 40 min
Bit rate : 857 kb/s
Width : 1 280 pixels
Height : 684 pixels
Display aspect ratio : 1.85:1
Frame rate mode : Constant
Frame rate : 23.976 (24000/1001) FPS
Color space : YUV
Chroma subsampling : 4:2:0
Bit depth : 10 bits
Bits/(Pixel*Frame) : 0.041
Stream size : 616 MiB (79%)
Default : Yes
Forced : No
Color range : Limited
Color primaries : BT.709
Transfer characteristics : BT.709
Matrix coefficients : BT.709

Audio
ID : 2
Format : AAC LC
Codec ID : A_AAC-2
Duration : 1 h 40 min
Bit rate : 224 kb/s
Channel(s) : 6 channels
Channel layout : C L R Ls Rs LFE
Sampling rate : 48.0 kHz
Frame rate : 46.875 FPS (1024 SPF)
Compression mode : Lossy
Delay relative to video : -12 ms
Stream size : 161 MiB (21%)
Language : English
Default : Yes
Forced : No

Text
ID : 3
Format : UTF-8
Codec ID : S_TEXT/UTF8
Codec ID/Info : UTF-8 Plain Text
Duration : 1 h 39 min
Bit rate : 37 b/s
Count of elements : 1056
Stream size : 27.5 KiB (0%)
Language : English
Default : Yes
Forced : No

[collapse]
Download Link(s)

Download

Direct download files get automatically deleted after a month or so. Posted on : 01/18/2021

[collapse]
Magnet Link

Magnet

Resident.Evil.2002.1080p.BluRay.x264.DTS-HD.MA.7.1-SWTYBLZ-16.24 GB

[collapse]

You may also like...

error: nah :p~