Ride (2018)

1h 19min | Thriller | 23 September 2018 (USA)

RIDE is a cautionary tale aimed at a technology-obsessed society. When James, an Uber driver, and his passenger, Jessica, pick up the charismatic but manipulative Bruno, a normal night out in LA becomes a psychological war for survival.

Watch trailer

Media information

General
Format : Matroska
Format version : Version 4
File size : 602 MiB
Duration : 1 h 16 min
Overall bit rate : 1 102 kb/s
Movie name : Ride.2018.720p.WEB-DL.2CH.x264.AVC
Encoded date : UTC 2018-10-05 15:48:33
Writing application : mkvmerge v27.0.0 (‘Metropolis’) 32-bit
Writing library : libebml v1.3.6 + libmatroska v1.4.9

Video
ID : 2
Format : AVC
Format/Info : Advanced Video Codec
Format profile : [email protected]
Format settings : CABAC / 5 Ref Frames
Format settings, CABAC : Yes
Format settings, RefFrames : 5 frames
Codec ID : V_MPEG4/ISO/AVC
Duration : 1 h 16 min
Bit rate : 1 036 kb/s
Width : 1 280 pixels
Height : 530 pixels
Display aspect ratio : 2.40:1
Frame rate mode : Constant
Frame rate : 23.976 (24000/1001) FPS
Color space : YUV
Chroma subsampling : 4:2:0
Bit depth : 8 bits
Scan type : Progressive
Bits/(Pixel*Frame) : 0.064
Stream size : 566 MiB (94%)
Default : Yes
Forced : No
Color range : Limited
Color primaries : BT.709
Transfer characteristics : BT.709
Matrix coefficients : BT.709

Audio
ID : 1
Format : AAC LC SBR
Commercial name : HE-AAC
Format settings : Explicit
Codec ID : A_AAC-2
Duration : 1 h 16 min
Bit rate : 64.0 kb/s
Channel(s) : 2 channels
Channel layout : L R
Sampling rate : 48.0 kHz
Frame rate : 23.438 FPS (2048 SPF)
Compression mode : Lossy
Delay relative to video : 31 ms
Stream size : 35.0 MiB (6%)
Language : English
Default : Yes
Forced : No

Text
ID : 3
Format : UTF-8
Codec ID : S_TEXT/UTF8
Codec ID/Info : UTF-8 Plain Text
Duration : 1 h 12 min
Bit rate : 89 b/s
Count of elements : 1439
Stream size : 47.7 KiB (0%)
Language : English
Default : Yes
Forced : No

[collapse]
Download Link(s)

Download

Direct download files get automatically deleted after a month or so. Posted on : 10/05/2018

[collapse]
Magnet Link

Magnet

Source : Ride.2018.1080p.WEB-DL.DD5.1.H264-FGT-2.68 GB

[collapse]

You may also like...

error: nah :p~