River Runs Red (2018)

Not Rated | 1h 34min | Thriller | 9 November 2018 (USA)

When the son of a successful judge (Taye Diggs) is killed by two police officers (Luke Hemsworth/Gianni Capaldi) and the system sets them free, a hardened veteran detective (John Cusack) finds some incriminating files on the officers and the judge teams up with another mourning father (George Lopez) to take the law into his own hands.

Watch trailer

Media information

General
Format : Matroska
Format version : Version 4
File size : 753 MiB
Duration : 1 h 34 min
Overall bit rate : 1 117 kb/s
Movie name : River.Runs.Red.2018.720p.WEB-DL.2CH.x264.AVC
Encoded date : UTC 2018-11-09 12:56:47
Writing application : mkvmerge v28.2.0 (‘The Awakening’) 32-bit
Writing library : libebml v1.3.6 + libmatroska v1.4.9

Video
ID : 2
Format : AVC
Format/Info : Advanced Video Codec
Format profile : [email protected]
Format settings : CABAC / 5 Ref Frames
Format settings, CABAC : Yes
Format settings, RefFrames : 5 frames
Codec ID : V_MPEG4/ISO/AVC
Duration : 1 h 34 min
Bit rate : 1 052 kb/s
Width : 1 280 pixels
Height : 536 pixels
Display aspect ratio : 2.40:1
Frame rate mode : Constant
Frame rate : 23.976 (24000/1001) FPS
Color space : YUV
Chroma subsampling : 4:2:0
Bit depth : 8 bits
Scan type : Progressive
Bits/(Pixel*Frame) : 0.064
Stream size : 708 MiB (94%)
Default : Yes
Forced : No
Color range : Limited
Color primaries : BT.709
Transfer characteristics : BT.709
Matrix coefficients : BT.709

Audio
ID : 1
Format : AAC LC SBR
Commercial name : HE-AAC
Format settings : Explicit
Codec ID : A_AAC-2
Duration : 1 h 34 min
Bit rate : 64.0 kb/s
Channel(s) : 2 channels
Channel layout : L R
Sampling rate : 48.0 kHz
Frame rate : 23.438 FPS (2048 SPF)
Compression mode : Lossy
Delay relative to video : 31 ms
Stream size : 43.1 MiB (6%)
Language : English
Default : Yes
Forced : No

Text
ID : 3
Format : UTF-8
Codec ID : S_TEXT/UTF8
Codec ID/Info : UTF-8 Plain Text
Duration : 1 h 32 min
Bit rate : 53 b/s
Count of elements : 1467
Stream size : 36.6 KiB (0%)
Language : English
Default : Yes
Forced : No

[collapse]
Download Link(s)

Download

Direct download files get automatically deleted after a month or so. Posted on : 11/09/2018

[collapse]
Magnet Link

Magnet

River.Runs.Red.2018.1080p.WEB-DL.DD5.1.H264-CMRG-3.3 GB

[collapse]

You may also like...

error: nah :p~