Roma (2018)

R | 2h 15min | Drama | 21 November 2018 (USA)

A story that chronicles a year in the life of a middle-class family in Mexico City in the early 1970s.

Watch trailer

Media information

General
Format : Matroska
Format version : Version 4
File size : 1.05 GiB
Duration : 2 h 15 min
Overall bit rate : 1 112 kb/s
Movie name : Roma.2018.REPACK.720p.WEB-DL.2CH.x264.AVC
Encoded date : UTC 2018-12-14 14:09:39
Writing application : mkvmerge v29.0.0 (‘Like It Or Not’) 32-bit
Writing library : libebml v1.3.6 + libmatroska v1.4.9

Video
ID : 1
Format : AVC
Format/Info : Advanced Video Codec
Format profile : [email protected]
Format settings : CABAC / 5 Ref Frames
Format settings, CABAC : Yes
Format settings, RefFrames : 5 frames
Codec ID : V_MPEG4/ISO/AVC
Duration : 2 h 15 min
Bit rate : 1 046 kb/s
Width : 1 280 pixels
Height : 536 pixels
Display aspect ratio : 2.40:1
Frame rate mode : Constant
Frame rate : 23.976 (24000/1001) FPS
Color space : YUV
Chroma subsampling : 4:2:0
Bit depth : 8 bits
Scan type : Progressive
Bits/(Pixel*Frame) : 0.064
Stream size : 1 012 MiB (94%)
Default : Yes
Forced : No
Color range : Limited
Color primaries : BT.709
Transfer characteristics : BT.709
Matrix coefficients : BT.709

Audio
ID : 4
Format : AAC LC SBR
Commercial name : HE-AAC
Format settings : Explicit
Codec ID : A_AAC-2
Duration : 2 h 15 min
Bit rate : 64.0 kb/s
Channel(s) : 2 channels
Channel layout : L R
Sampling rate : 48.0 kHz
Frame rate : 23.438 FPS (2048 SPF)
Compression mode : Lossy
Delay relative to video : 31 ms
Stream size : 61.9 MiB (6%)
Language : Spanish
Default : Yes
Forced : No

Text #1
ID : 2
Format : UTF-8
Codec ID : S_TEXT/UTF8
Codec ID/Info : UTF-8 Plain Text
Duration : 2 h 8 min
Bit rate : 30 b/s
Count of elements : 886
Stream size : 29.0 KiB (0%)
Title : English
Language : English
Default : Yes
Forced : Yes

Text #2
ID : 3
Format : UTF-8
Codec ID : S_TEXT/UTF8
Codec ID/Info : UTF-8 Plain Text
Duration : 2 h 14 min
Bit rate : 29 b/s
Count of elements : 959
Stream size : 29.4 KiB (0%)
Title : Brazilian Portuguese
Language : Portuguese
Default : No
Forced : No

[collapse]
Download Link(s)

Download

Direct download files get automatically deleted after a month or so. Posted on : 12/14/2018

[collapse]
Magnet Link

Magnet

Roma.2018.720p.WEBRip.x264-STRiFE-2.70 GB

[collapse]

You may also like...

error: nah :p~