Rules of Engagement (2000)

R | 2h 8min | Drama, Thriller, War | 7 April 2000 (USA)

An attorney defends an officer on trial for ordering his troops to fire on civilians after they stormed a U.S. embassy in a Middle Eastern country.

Watch trailer

Media information

General
Format : Matroska
Format version : Version 4
File size : 1.98 GiB
Duration : 2 h 7 min
Overall bit rate : 2 227 kb/s
Movie name : Rules.of.Engagement.2000.1080p.10bit.BluRay.6CH.x265.HEVC

Video
ID : 1
Format : HEVC
Format/Info : High Efficiency Video Coding
Format profile : Main [email protected]@Main
Codec ID : V_MPEGH/ISO/HEVC
Duration : 2 h 7 min
Bit rate : 2 000 kb/s
Width : 1 920 pixels
Height : 726 pixels
Display aspect ratio : 2.645
Frame rate mode : Constant
Frame rate : 24.000 FPS
Color space : YUV
Chroma subsampling : 4:2:0
Bit depth : 10 bits
Bits/(Pixel*Frame) : 0.060
Stream size : 1.78 GiB (90%)
Default : Yes
Forced : No
Color range : Limited
Color primaries : BT.709
Transfer characteristics : BT.709
Matrix coefficients : BT.709

Audio
ID : 2
Format : AAC LC
Codec ID : A_AAC-2
Duration : 2 h 7 min
Bit rate : 224 kb/s
Channel(s) : 6 channels
Channel layout : C L R Ls Rs LFE
Sampling rate : 48.0 kHz
Frame rate : 46.875 FPS (1024 SPF)
Compression mode : Lossy
Delay relative to video : -21 ms
Stream size : 204 MiB (10%)
Language : English
Default : Yes
Forced : No

Text
ID : 3
Format : UTF-8
Codec ID : S_TEXT/UTF8
Codec ID/Info : UTF-8 Plain Text
Duration : 1 h 58 min
Bit rate : 66 b/s
Count of elements : 1459
Stream size : 57.7 KiB (0%)
Language : English
Default : Yes
Forced : No

[collapse]
Download Link(s)

Download

Direct download files get automatically deleted after a month or so. Posted on : 07/06/2020

[collapse]
Magnet Link

Magnet

Rules.of.Engagement.2000.1080p.BluRay.x264.DTS-FGT-10.89 GB

[collapse]

Media information

General
Format : Matroska
Format version : Version 4
File size : 1.00 GiB
Duration : 2 h 7 min
Overall bit rate : 1 127 kb/s
Movie name : Rules.of.Engagement.2000.720p.10bit.BluRay.6CH.x265.HEVC

Video
ID : 1
Format : HEVC
Format/Info : High Efficiency Video Coding
Format profile : Main [email protected]@Main
Codec ID : V_MPEGH/ISO/HEVC
Duration : 2 h 7 min
Bit rate : 900 kb/s
Width : 1 280 pixels
Height : 484 pixels
Display aspect ratio : 2.645
Frame rate mode : Constant
Frame rate : 24.000 FPS
Color space : YUV
Chroma subsampling : 4:2:0
Bit depth : 10 bits
Bits/(Pixel*Frame) : 0.061
Stream size : 820 MiB (80%)
Default : Yes
Forced : No
Color range : Limited
Color primaries : BT.709
Transfer characteristics : BT.709
Matrix coefficients : BT.709

Audio
ID : 2
Format : AAC LC
Codec ID : A_AAC-2
Duration : 2 h 7 min
Bit rate : 224 kb/s
Channel(s) : 6 channels
Channel layout : C L R Ls Rs LFE
Sampling rate : 48.0 kHz
Frame rate : 46.875 FPS (1024 SPF)
Compression mode : Lossy
Delay relative to video : -21 ms
Stream size : 204 MiB (20%)
Language : English
Default : Yes
Forced : No

Text
ID : 3
Format : UTF-8
Codec ID : S_TEXT/UTF8
Codec ID/Info : UTF-8 Plain Text
Duration : 1 h 58 min
Bit rate : 66 b/s
Count of elements : 1459
Stream size : 57.7 KiB (0%)
Language : English
Default : Yes
Forced : No

[collapse]
Download Link(s)

Download

Direct download files get automatically deleted after a month or so. Posted on : 07/06/2020

[collapse]
Magnet Link

Magnet

Rules.of.Engagement.2000.1080p.BluRay.x264.DTS-FGT-10.89 GB

[collapse]

You may also like...

error: nah :p~