Run the Race (2018)

PG | 1h 41min | Drama, Sport | 22 February 2019 (USA)

Against the backdrop of high school football and track, two brothers in a small Southern town face escalating problems with two different world views, straining – but ultimately strengthening – the bonds of brotherhood.

Watch trailer

Media information

General
Format : Matroska
Format version : Version 4
File size : 852 MiB
Duration : 1 h 42 min
Overall bit rate : 1 163 kb/s
Movie name : Run.the.Race.2019.720p.WEB-DL.2CH.x264.AVC
Encoded date : UTC 2019-05-21 20:17:09
Writing application : mkvmerge v34.0.0 (‘Sight and Seen’) 32-bit
Writing library : libebml v1.3.7 + libmatroska v1.5.0

Video
ID : 2
Format : AVC
Format/Info : Advanced Video Codec
Format profile : [email protected]
Format settings : CABAC / 5 Ref Frames
Format settings, CABAC : Yes
Format settings, Reference frames : 5 frames
Codec ID : V_MPEG4/ISO/AVC
Duration : 1 h 42 min
Bit rate : 1 097 kb/s
Width : 1 280 pixels
Height : 690 pixels
Display aspect ratio : 1.85:1
Frame rate mode : Constant
Frame rate : 23.976 (24000/1001) FPS
Color space : YUV
Chroma subsampling : 4:2:0
Bit depth : 8 bits
Scan type : Progressive
Bits/(Pixel*Frame) : 0.052
Stream size : 804 MiB (94%)
Default : Yes
Forced : No

Audio
ID : 3
Format : AAC LC SBR
Commercial name : HE-AAC
Format settings : Explicit
Codec ID : A_AAC-2
Duration : 1 h 42 min
Bit rate : 64.0 kb/s
Channel(s) : 2 channels
Channel layout : L R
Sampling rate : 48.0 kHz
Frame rate : 23.438 FPS (2048 SPF)
Compression mode : Lossy
Delay relative to video : 1 ms
Stream size : 46.9 MiB (6%)
Language : English
Default : Yes
Forced : No

Text
ID : 1
Format : UTF-8
Codec ID : S_TEXT/UTF8
Codec ID/Info : UTF-8 Plain Text
Duration : 1 h 36 min
Bit rate : 62 b/s
Count of elements : 1193
Stream size : 44.0 KiB (0%)
Language : English
Default : Yes
Forced : No

[collapse]
Download Link(s)

Download

Direct download files get automatically deleted after a month or so. Posted on : 05/22/2019

[collapse]
Magnet Link

Magnet

Run.the.Race.2018.1080p.WEB-DL.DD5.1.H264-FGT-3.98 GB

[collapse]

You may also like...

error: nah :p~