Rush (2013)

R | 2h 3min | Action, Biography, Drama | 27 September 2013 (USA)

The merciless 1970s rivalry between Formula One rivals James Hunt and Niki Lauda.

Watch trailer

Media information

General
Format : Matroska
Format version : Version 4
File size : 756 MiB
Duration : 2 h 2 min
Overall bit rate : 861 kb/s
Movie name : Rush.2013.720p.BluRay.2CH.x265.HEVC
Encoded date : UTC 2019-04-18 21:14:15
Writing application : mkvmerge v33.1.0 (‘Primrose’) 32-bit
Writing library : libebml v1.3.7 + libmatroska v1.5.0

Video
ID : 1
Format : HEVC
Format/Info : High Efficiency Video Coding
Format profile : [email protected]@Main
Codec ID : V_MPEGH/ISO/HEVC
Duration : 2 h 2 min
Bit rate : 794 kb/s
Width : 1 280 pixels
Height : 534 pixels
Display aspect ratio : 2.40:1
Frame rate mode : Constant
Frame rate : 23.976 (24000/1001) FPS
Color space : YUV
Chroma subsampling : 4:2:0
Bit depth : 8 bits
Bits/(Pixel*Frame) : 0.048
Stream size : 697 MiB (92%)
Default : Yes
Forced : No
Color range : Limited
Color primaries : BT.709
Transfer characteristics : BT.709
Matrix coefficients : BT.709

Audio
ID : 2
Format : AAC LC
Codec ID : A_AAC-2
Duration : 2 h 2 min
Bit rate : 64.4 kb/s
Channel(s) : 2 channels
Channel layout : L R
Sampling rate : 48.0 kHz
Frame rate : 46.875 FPS (1024 SPF)
Compression mode : Lossy
Delay relative to video : 22 ms
Stream size : 56.5 MiB (7%)
Title : Stereo
Language : English
Default : Yes
Forced : No

Text #1
ID : 3
Format : ASS
Codec ID : S_TEXT/ASS
Duration : 1 h 52 min
Bit rate : 115 b/s
Count of elements : 1616
Compression mode : Lossless
Stream size : 95.2 KiB (0%)
Language : English
Default : Yes
Forced : Yes

Text #2
ID : 4
Format : ASS
Codec ID : S_TEXT/ASS
Duration : 1 h 52 min
Bit rate : 100 b/s
Count of elements : 1370
Compression mode : Lossless
Stream size : 82.8 KiB (0%)
Language : English
Default : No
Forced : No

[collapse]
Download Link(s)

Download

Direct download files get automatically deleted after a month or so. Posted on : 04/19/2019

[collapse]
Magnet Link

Magnet

Rush.2013.1080p.BluRay.x264-SPARKS-7.94 GB

[collapse]

You may also like...

error: nah :p~