Satan’s Slaves (2017)

Pengabdi Setan (original title)|1h 47min | Drama, Horror, Mystery | 28 September 2017 (Indonesia)

After dying from a strange illness that she suffered for 3 years, a mother returns home to pick up her children.

Watch trailer

Media information

General
Format : Matroska
Format version : Version 4 / Version 2
File size : 952 MiB
Duration : 1 h 46 min
Overall bit rate : 1 254 kb/s
Movie name : Satans.Slaves.2017.720p.BluRay.2CH.x264.AVC
Encoded date : UTC 2018-08-19 12:39:29
Writing application : mkvmerge v25.0.0 (‘Prog Noir’) 32-bit
Writing library : libebml v1.3.6 + libmatroska v1.4.9

Video
ID : 2
Format : AVC
Format/Info : Advanced Video Codec
Format profile : [email protected]
Format settings : CABAC / 9 Ref Frames
Format settings, CABAC : Yes
Format settings, RefFrames : 9 frames
Codec ID : V_MPEG4/ISO/AVC
Duration : 1 h 46 min
Bit rate : 1 152 kb/s
Width : 1 280 pixels
Height : 536 pixels
Display aspect ratio : 2.40:1
Frame rate mode : Constant
Frame rate : 24.000 FPS
Color space : YUV
Chroma subsampling : 4:2:0
Bit depth : 8 bits
Scan type : Progressive
Bits/(Pixel*Frame) : 0.070
Stream size : 875 MiB (92%)
Default : Yes
Forced : No

Audio
ID : 1
Format : AAC
Format/Info : Advanced Audio Codec
Format profile : HE-AAC / LC
Format settings : Explicit
Codec ID : A_AAC-2
Duration : 1 h 46 min
Bit rate : 99.8 kb/s
Channel(s) : 6 channels
Channel positions : Front: L C R, Side: L R, LFE
Sampling rate : 48.0 kHz / 24.0 kHz
Frame rate : 23.438 FPS (1024 SPF)
Compression mode : Lossy
Delay relative to video : 31 ms
Stream size : 75.7 MiB (8%)
Language : Indonesian
Default : Yes
Forced : No

Text
ID : 3
Format : UTF-8
Codec ID : S_TEXT/UTF8
Codec ID/Info : UTF-8 Plain Text
Duration : 1 h 43 min
Bit rate : 23 b/s
Count of elements : 803
Stream size : 17.9 KiB (0%)
Title : English
Language : English
Default : Yes
Forced : Yes

[collapse]
Download Link(s)

Download

Direct download files get automatically deleted after a month or so. Posted on : 08/19/2018

[collapse]
Magnet Link

Magnet

Source : Satans.Slaves.2017.1080p.BluRay.x264-REGRET-6.57 GB

[collapse]

You may also like...

error: nah :p~