Saving Zoë (2019)

R | 1h 35min | Crime, Drama | 12 July 2019 (USA)

It’s been a year since her older sister’s murder, and Echo is still far from being completely all right. Echo has been trying her hardest to be the strong one, while her mother takes too many antidepressants and her father works too much. Now, at the start of her freshman year of high school, Echo receives an unlikely gift from Zoe’s old boyfriend: her diary. Echo is hesitant to read it but can’t put it down after she gets caught up in Zoe’s secret life.

Watch trailer

Media information

General
Format : Matroska
Format version : Version 4
File size : 572 MiB
Duration : 1 h 35 min
Overall bit rate : 840 kb/s
Movie name : Saving.Zoe.2019.720p.WEB-DL.2CH.x265.HEVC
Encoded date : UTC 2019-07-12 12:03:10
Writing application : mkvmerge v35.0.0 (‘All The Love In The World’) 32-bit
Writing library : libebml v1.3.9 + libmatroska v1.5.2

Video
ID : 1
Format : HEVC
Format/Info : High Efficiency Video Coding
Format profile : [email protected]@Main
Codec ID : V_MPEGH/ISO/HEVC
Duration : 1 h 35 min
Bit rate : 771 kb/s
Width : 1 280 pixels
Height : 528 pixels
Display aspect ratio : 2.40:1
Frame rate mode : Constant
Frame rate : 23.976 (24000/1001) FPS
Color space : YUV
Chroma subsampling : 4:2:0
Bit depth : 8 bits
Bits/(Pixel*Frame) : 0.048
Stream size : 525 MiB (92%)
Default : Yes
Forced : No

Audio
ID : 2
Format : AAC LC SBR
Commercial name : HE-AAC
Format settings : Explicit
Codec ID : A_AAC-2
Duration : 1 h 35 min
Bit rate : 66.2 kb/s
Channel(s) : 2 channels
Channel layout : L R
Sampling rate : 48.0 kHz
Frame rate : 23.438 FPS (2048 SPF)
Compression mode : Lossy
Delay relative to video : 23 ms
Stream size : 45.4 MiB (8%)
Language : English
Default : Yes
Forced : No

Text
ID : 3
Format : UTF-8
Codec ID : S_TEXT/UTF8
Codec ID/Info : UTF-8 Plain Text
Duration : 1 h 29 min
Bit rate : 41 b/s
Count of elements : 1009
Stream size : 27.0 KiB (0%)
Language : English
Default : Yes
Forced : No

[collapse]
Download Link(s)

Download

Direct download files get automatically deleted after a month or so. Posted on : 07/12/2019

[collapse]
Magnet Link

Magnet

Saving.Zoe.2019.1080p.WEB-DL.DD5.1.H264-FGT- 3.28 GB

[collapse]

You may also like...

error: nah :p~