Scorched Earth (2018)

R | 1h 36min | Action, Sci-Fi | 2 February 2018 (USA)

A bounty hunter named Atticus Gage tracks down criminals in a post-apocalyptic Earth.

Watch trailer

Media information

General
Format : Matroska
Format version : Version 4 / Version 2
File size : 827 MiB
Duration : 1 h 33 min
Overall bit rate : 1 231 kb/s
Movie name : Scorched.Earth.2018.720p.10bit.BluRay.6CH.x265.HEVC
Encoded date : UTC 2018-03-11 15:28:30
Writing application : mkvmerge v21.0.0 (‘Tardigrades Will Inherit The Earth’) 32-bit
Writing library : libebml v1.3.5 + libmatroska v1.4.8

Video
ID : 1
Format : HEVC
Format/Info : High Efficiency Video Coding
Format profile : Main [email protected]@Main
Codec ID : V_MPEGH/ISO/HEVC
Duration : 1 h 33 min
Bit rate : 1 013 kb/s
Width : 1 280 pixels
Height : 688 pixels
Display aspect ratio : 1.85:1
Frame rate mode : Constant
Frame rate : 23.976 (24000/1001) FPS
Color space : YUV
Chroma subsampling : 4:2:0
Bit depth : 10 bits
Bits/(Pixel*Frame) : 0.048
Stream size : 681 MiB (82%)
Default : Yes
Forced : No

Audio
ID : 2
Format : AAC
Format/Info : Advanced Audio Codec
Format profile : HE-AAC / LC
Format settings : NBC
Codec ID : A_AAC-2
Duration : 1 h 33 min
Bit rate : 215 kb/s
Channel(s) : 6 channels
Channel(s)_Original : 18 channels
Channel positions : Front: 14, Side: C, Back: C, LFE= 2
Sampling rate : 48.0 kHz / 24.0 kHz
Frame rate : 23.438 FPS (1024 SPF)
Compression mode : Lossy
Delay relative to video : 23 ms
Stream size : 145 MiB (18%)
Default : Yes
Forced : No

Text
ID : 3
Format : UTF-8
Codec ID : S_TEXT/UTF8
Codec ID/Info : UTF-8 Plain Text
Duration : 1 h 29 min
Bit rate : 40 b/s
Count of elements : 920
Stream size : 26.3 KiB (0%)
Default : Yes
Forced : No

[collapse]
Download Link(s)

Download

Direct download files get automatically deleted after a month or so. Posted on : 03/11/2018

[collapse]
Magnet Link

Magnet

Source : Scorched.Earth.2018.1080p.BluRay.REMUX.AVC.DTS-HD.MA.5.1-FGT-18.49 GB

[collapse]

You may also like...

error: nah :p~