Sentinelle (2021)

TV-MA | 1h 20min | Action, Drama, Thriller | TV Movie 5 March 2021

Transferred home after a traumatizing combat mission, a trained French soldier uses her lethal skills to hunt down the man who hurt her sister.

Watch trailer

Media information

General
Format : Matroska
Format version : Version 4
File size : 1.08 GiB
Duration : 1 h 20 min
Overall bit rate : 1 916 kb/s
Movie name : Sentinelle.2021.DUAL-AUDIO.FRE-ENG.1080p.10bit.WEBRip.6CH.x265.HEVC

Video
ID : 1
Format : HEVC
Format/Info : High Efficiency Video Coding
Format profile : Main [email protected]@Main
Codec ID : V_MPEGH/ISO/HEVC
Duration : 1 h 20 min
Bit rate : 1 463 kb/s
Width : 1 920 pixels
Height : 800 pixels
Display aspect ratio : 2.40:1
Frame rate mode : Constant
Frame rate : 24.000 FPS
Color space : YUV
Chroma subsampling : 4:2:0
Bit depth : 10 bits
Bits/(Pixel*Frame) : 0.040
Stream size : 844 MiB (76%)
Default : Yes
Forced : No

Audio #1
ID : 2
Format : AAC LC SBR
Commercial name : HE-AAC
Format settings : Explicit
Codec ID : A_AAC-2
Duration : 1 h 20 min
Bit rate : 224 kb/s
Channel(s) : 6 channels
Channel layout : C L R Ls Rs LFE
Sampling rate : 48.0 kHz
Frame rate : 23.438 FPS (2048 SPF)
Compression mode : Lossy
Delay relative to video : 23 ms
Stream size : 129 MiB (12%)
Language : French
Default : Yes
Forced : No

Audio #2
ID : 3
Format : AAC LC SBR
Commercial name : HE-AAC
Format settings : Explicit
Codec ID : A_AAC-2
Duration : 1 h 20 min
Bit rate : 225 kb/s
Channel(s) : 6 channels
Channel layout : C L R Ls Rs LFE
Sampling rate : 48.0 kHz
Frame rate : 23.438 FPS (2048 SPF)
Compression mode : Lossy
Delay relative to video : 23 ms
Stream size : 130 MiB (12%)
Language : English
Default : No
Forced : No

Text #1
ID : 4
Format : UTF-8
Codec ID : S_TEXT/UTF8
Codec ID/Info : UTF-8 Plain Text
Duration : 1 h 15 min
Bit rate : 31 b/s
Count of elements : 658
Stream size : 17.5 KiB (0%)
Title : SDH
Language : English
Default : Yes
Forced : Yes

Text #2
ID : 5
Format : UTF-8
Codec ID : S_TEXT/UTF8
Codec ID/Info : UTF-8 Plain Text
Duration : 1 h 12 min
Bit rate : 2 b/s
Count of elements : 63
Stream size : 1.49 KiB (0%)
Title : Forced
Language : French
Default : No
Forced : No

Text #3
ID : 6
Format : UTF-8
Codec ID : S_TEXT/UTF8
Codec ID/Info : UTF-8 Plain Text
Duration : 1 h 14 min
Bit rate : 30 b/s
Count of elements : 660
Stream size : 16.7 KiB (0%)
Title : SDH
Language : French
Default : No
Forced : No

Text #4
ID : 7
Format : UTF-8
Codec ID : S_TEXT/UTF8
Codec ID/Info : UTF-8 Plain Text
Duration : 1 h 19 min
Bit rate : 33 b/s
Count of elements : 437
Stream size : 19.2 KiB (0%)
Language : Arabic
Default : No
Forced : No

Text #5
ID : 8
Format : UTF-8
Codec ID : S_TEXT/UTF8
Codec ID/Info : UTF-8 Plain Text
Duration : 1 h 19 min
Bit rate : 17 b/s
Count of elements : 435
Stream size : 10.1 KiB (0%)
Language : Czech
Default : No
Forced : No

Text #6
ID : 9
Format : UTF-8
Codec ID : S_TEXT/UTF8
Codec ID/Info : UTF-8 Plain Text
Duration : 1 h 19 min
Bit rate : 17 b/s
Count of elements : 415
Stream size : 10.3 KiB (0%)
Language : Danish
Default : No
Forced : No

Text #7
ID : 10
Format : UTF-8
Codec ID : S_TEXT/UTF8
Codec ID/Info : UTF-8 Plain Text
Duration : 1 h 19 min
Bit rate : 18 b/s
Count of elements : 437
Stream size : 10.6 KiB (0%)
Language : German
Default : No
Forced : No

Text #8
ID : 11
Format : UTF-8
Codec ID : S_TEXT/UTF8
Codec ID/Info : UTF-8 Plain Text
Duration : 1 h 19 min
Bit rate : 30 b/s
Count of elements : 447
Stream size : 17.9 KiB (0%)
Language : Greek
Default : No
Forced : No

Text #9
ID : 12
Format : UTF-8
Codec ID : S_TEXT/UTF8
Codec ID/Info : UTF-8 Plain Text
Duration : 1 h 13 min
Bit rate : 19 b/s
Count of elements : 435
Stream size : 10.4 KiB (0%)
Language : English
Default : No
Forced : No

Text #10
ID : 13
Format : UTF-8
Codec ID : S_TEXT/UTF8
Codec ID/Info : UTF-8 Plain Text
Duration : 1 h 19 min
Bit rate : 17 b/s
Count of elements : 444
Stream size : 10.1 KiB (0%)
Language : Spanish
Default : No
Forced : No

Text #11
ID : 14
Format : UTF-8
Codec ID : S_TEXT/UTF8
Codec ID/Info : UTF-8 Plain Text
Duration : 1 h 19 min
Bit rate : 17 b/s
Count of elements : 440
Stream size : 10.2 KiB (0%)
Language : Spanish
Default : No
Forced : No

Text #12
ID : 15
Format : UTF-8
Codec ID : S_TEXT/UTF8
Codec ID/Info : UTF-8 Plain Text
Duration : 1 h 19 min
Bit rate : 17 b/s
Count of elements : 401
Stream size : 9.96 KiB (0%)
Language : Finnish
Default : No
Forced : No

Text #13
ID : 16
Format : UTF-8
Codec ID : S_TEXT/UTF8
Codec ID/Info : UTF-8 Plain Text
Duration : 1 h 19 min
Bit rate : 30 b/s
Count of elements : 463
Stream size : 17.6 KiB (0%)
Language : Hebrew
Default : No
Forced : No

Text #14
ID : 17
Format : UTF-8
Codec ID : S_TEXT/UTF8
Codec ID/Info : UTF-8 Plain Text
Duration : 1 h 19 min
Bit rate : 16 b/s
Count of elements : 425
Stream size : 9.66 KiB (0%)
Language : Croatian
Default : No
Forced : No

Text #15
ID : 18
Format : UTF-8
Codec ID : S_TEXT/UTF8
Codec ID/Info : UTF-8 Plain Text
Duration : 1 h 19 min
Bit rate : 17 b/s
Count of elements : 441
Stream size : 10.2 KiB (0%)
Language : Hungarian
Default : No
Forced : No

Text #16
ID : 19
Format : UTF-8
Codec ID : S_TEXT/UTF8
Codec ID/Info : UTF-8 Plain Text
Duration : 1 h 19 min
Bit rate : 17 b/s
Count of elements : 453
Stream size : 10.3 KiB (0%)
Language : Indonesian
Default : No
Forced : No

Text #17
ID : 20
Format : UTF-8
Codec ID : S_TEXT/UTF8
Codec ID/Info : UTF-8 Plain Text
Duration : 1 h 19 min
Bit rate : 17 b/s
Count of elements : 430
Stream size : 10.4 KiB (0%)
Language : Italian
Default : No
Forced : No

Text #18
ID : 21
Format : UTF-8
Codec ID : S_TEXT/UTF8
Codec ID/Info : UTF-8 Plain Text
Duration : 1 h 19 min
Bit rate : 18 b/s
Count of elements : 432
Stream size : 10.5 KiB (0%)
Language : Japanese
Default : No
Forced : No

Text #19
ID : 22
Format : UTF-8
Codec ID : S_TEXT/UTF8
Codec ID/Info : UTF-8 Plain Text
Duration : 1 h 19 min
Bit rate : 23 b/s
Count of elements : 451
Stream size : 13.8 KiB (0%)
Language : Korean
Default : No
Forced : No

Text #20
ID : 23
Format : UTF-8
Codec ID : S_TEXT/UTF8
Codec ID/Info : UTF-8 Plain Text
Duration : 1 h 19 min
Bit rate : 18 b/s
Count of elements : 436
Stream size : 10.6 KiB (0%)
Language : Malay
Default : No
Forced : No

Text #21
ID : 24
Format : UTF-8
Codec ID : S_TEXT/UTF8
Codec ID/Info : UTF-8 Plain Text
Duration : 1 h 19 min
Bit rate : 17 b/s
Count of elements : 417
Stream size : 9.99 KiB (0%)
Language : Norwegian Bokmal
Default : No
Forced : No

Text #22
ID : 25
Format : UTF-8
Codec ID : S_TEXT/UTF8
Codec ID/Info : UTF-8 Plain Text
Duration : 1 h 19 min
Bit rate : 17 b/s
Count of elements : 407
Stream size : 10.0 KiB (0%)
Language : Dutch
Default : No
Forced : No

Text #23
ID : 26
Format : UTF-8
Codec ID : S_TEXT/UTF8
Codec ID/Info : UTF-8 Plain Text
Duration : 1 h 19 min
Bit rate : 16 b/s
Count of elements : 433
Stream size : 9.60 KiB (0%)
Language : Polish
Default : No
Forced : No

Text #24
ID : 27
Format : UTF-8
Codec ID : S_TEXT/UTF8
Codec ID/Info : UTF-8 Plain Text
Duration : 1 h 19 min
Bit rate : 17 b/s
Count of elements : 442
Stream size : 10.1 KiB (0%)
Title : Brasil
Language : Portuguese
Default : No
Forced : No

Text #25
ID : 28
Format : UTF-8
Codec ID : S_TEXT/UTF8
Codec ID/Info : UTF-8 Plain Text
Duration : 1 h 19 min
Bit rate : 17 b/s
Count of elements : 450
Stream size : 10.3 KiB (0%)
Language : Portuguese
Default : No
Forced : No

Text #26
ID : 29
Format : UTF-8
Codec ID : S_TEXT/UTF8
Codec ID/Info : UTF-8 Plain Text
Duration : 1 h 19 min
Bit rate : 20 b/s
Count of elements : 433
Stream size : 12.1 KiB (0%)
Language : Romanian
Default : No
Forced : No

Text #27
ID : 30
Format : UTF-8
Codec ID : S_TEXT/UTF8
Codec ID/Info : UTF-8 Plain Text
Duration : 1 h 19 min
Bit rate : 26 b/s
Count of elements : 403
Stream size : 15.5 KiB (0%)
Language : Russian
Default : No
Forced : No

Text #28
ID : 31
Format : UTF-8
Codec ID : S_TEXT/UTF8
Codec ID/Info : UTF-8 Plain Text
Duration : 1 h 19 min
Bit rate : 18 b/s
Count of elements : 392
Stream size : 10.6 KiB (0%)
Language : Swedish
Default : No
Forced : No

Text #29
ID : 32
Format : UTF-8
Codec ID : S_TEXT/UTF8
Codec ID/Info : UTF-8 Plain Text
Duration : 1 h 19 min
Bit rate : 48 b/s
Count of elements : 442
Stream size : 28.5 KiB (0%)
Language : Thai
Default : No
Forced : No

Text #30
ID : 33
Format : UTF-8
Codec ID : S_TEXT/UTF8
Codec ID/Info : UTF-8 Plain Text
Duration : 1 h 19 min
Bit rate : 18 b/s
Count of elements : 439
Stream size : 10.8 KiB (0%)
Language : Turkish
Default : No
Forced : No

Text #31
ID : 34
Format : UTF-8
Codec ID : S_TEXT/UTF8
Codec ID/Info : UTF-8 Plain Text
Duration : 1 h 19 min
Bit rate : 25 b/s
Count of elements : 441
Stream size : 15.1 KiB (0%)
Language : Vietnamese
Default : No
Forced : No

Text #32
ID : 35
Format : UTF-8
Codec ID : S_TEXT/UTF8
Codec ID/Info : UTF-8 Plain Text
Duration : 1 h 19 min
Bit rate : 21 b/s
Count of elements : 447
Stream size : 12.4 KiB (0%)
Title : Simplified
Language : Chinese
Default : No
Forced : No

Text #33
ID : 36
Format : UTF-8
Codec ID : S_TEXT/UTF8
Codec ID/Info : UTF-8 Plain Text
Duration : 1 h 19 min
Bit rate : 19 b/s
Count of elements : 443
Stream size : 11.6 KiB (0%)
Title : Traditional
Language : Chinese
Default : No
Forced : No

[collapse]
Download Link(s)

Download

Direct download files get automatically deleted after a month or so. Posted on : 03/08/2021

[collapse]
Magnet Link

Magnet

Sentinelle.2021.FRENCH.1080p.NF.WEBRip.DDP5.1.x264-MRCS- 1.91 GB

[collapse]

Media information

General
Format : Matroska
Format version : Version 4
File size : 663 MiB
Duration : 1 h 20 min
Overall bit rate : 1 150 kb/s
Movie name : Sentinelle.2021.DUAL-AUDIO.FRE-ENG.720p.10bit.WEBRip.6CH.x265.HEVC

Video
ID : 1
Format : HEVC
Format/Info : High Efficiency Video Coding
Format profile : Main [email protected]@Main
Codec ID : V_MPEGH/ISO/HEVC
Duration : 1 h 20 min
Bit rate : 697 kb/s
Width : 1 280 pixels
Height : 536 pixels
Display aspect ratio : 2.40:1
Frame rate mode : Constant
Frame rate : 24.000 FPS
Color space : YUV
Chroma subsampling : 4:2:0
Bit depth : 10 bits
Bits/(Pixel*Frame) : 0.042
Stream size : 402 MiB (61%)
Default : Yes
Forced : No

Audio #1
ID : 2
Format : AAC LC SBR
Commercial name : HE-AAC
Format settings : Explicit
Codec ID : A_AAC-2
Duration : 1 h 20 min
Bit rate : 224 kb/s
Channel(s) : 6 channels
Channel layout : C L R Ls Rs LFE
Sampling rate : 48.0 kHz
Frame rate : 23.438 FPS (2048 SPF)
Compression mode : Lossy
Delay relative to video : 23 ms
Stream size : 129 MiB (20%)
Language : French
Default : Yes
Forced : No

Audio #2
ID : 3
Format : AAC LC SBR
Commercial name : HE-AAC
Format settings : Explicit
Codec ID : A_AAC-2
Duration : 1 h 20 min
Bit rate : 225 kb/s
Channel(s) : 6 channels
Channel layout : C L R Ls Rs LFE
Sampling rate : 48.0 kHz
Frame rate : 23.438 FPS (2048 SPF)
Compression mode : Lossy
Delay relative to video : 23 ms
Stream size : 130 MiB (20%)
Language : English
Default : No
Forced : No

Text #1
ID : 4
Format : UTF-8
Codec ID : S_TEXT/UTF8
Codec ID/Info : UTF-8 Plain Text
Duration : 1 h 15 min
Bit rate : 31 b/s
Count of elements : 658
Stream size : 17.5 KiB (0%)
Title : SDH
Language : English
Default : Yes
Forced : No

Text #2
ID : 5
Format : UTF-8
Codec ID : S_TEXT/UTF8
Codec ID/Info : UTF-8 Plain Text
Duration : 1 h 12 min
Bit rate : 2 b/s
Count of elements : 63
Stream size : 1.49 KiB (0%)
Title : Forced
Language : French
Default : No
Forced : Yes

Text #3
ID : 6
Format : UTF-8
Codec ID : S_TEXT/UTF8
Codec ID/Info : UTF-8 Plain Text
Duration : 1 h 14 min
Bit rate : 30 b/s
Count of elements : 660
Stream size : 16.7 KiB (0%)
Title : SDH
Language : French
Default : No
Forced : No

Text #4
ID : 7
Format : UTF-8
Codec ID : S_TEXT/UTF8
Codec ID/Info : UTF-8 Plain Text
Duration : 1 h 19 min
Bit rate : 33 b/s
Count of elements : 437
Stream size : 19.2 KiB (0%)
Language : Arabic
Default : No
Forced : No

Text #5
ID : 8
Format : UTF-8
Codec ID : S_TEXT/UTF8
Codec ID/Info : UTF-8 Plain Text
Duration : 1 h 19 min
Bit rate : 17 b/s
Count of elements : 435
Stream size : 10.1 KiB (0%)
Language : Czech
Default : No
Forced : No

Text #6
ID : 9
Format : UTF-8
Codec ID : S_TEXT/UTF8
Codec ID/Info : UTF-8 Plain Text
Duration : 1 h 19 min
Bit rate : 17 b/s
Count of elements : 415
Stream size : 10.3 KiB (0%)
Language : Danish
Default : No
Forced : No

Text #7
ID : 10
Format : UTF-8
Codec ID : S_TEXT/UTF8
Codec ID/Info : UTF-8 Plain Text
Duration : 1 h 19 min
Bit rate : 18 b/s
Count of elements : 437
Stream size : 10.6 KiB (0%)
Language : German
Default : No
Forced : No

Text #8
ID : 11
Format : UTF-8
Codec ID : S_TEXT/UTF8
Codec ID/Info : UTF-8 Plain Text
Duration : 1 h 19 min
Bit rate : 30 b/s
Count of elements : 447
Stream size : 17.9 KiB (0%)
Language : Greek
Default : No
Forced : No

Text #9
ID : 12
Format : UTF-8
Codec ID : S_TEXT/UTF8
Codec ID/Info : UTF-8 Plain Text
Duration : 1 h 13 min
Bit rate : 19 b/s
Count of elements : 435
Stream size : 10.4 KiB (0%)
Language : English
Default : No
Forced : No

Text #10
ID : 13
Format : UTF-8
Codec ID : S_TEXT/UTF8
Codec ID/Info : UTF-8 Plain Text
Duration : 1 h 19 min
Bit rate : 17 b/s
Count of elements : 444
Stream size : 10.1 KiB (0%)
Language : Spanish
Default : No
Forced : No

Text #11
ID : 14
Format : UTF-8
Codec ID : S_TEXT/UTF8
Codec ID/Info : UTF-8 Plain Text
Duration : 1 h 19 min
Bit rate : 17 b/s
Count of elements : 440
Stream size : 10.2 KiB (0%)
Language : Spanish
Default : No
Forced : No

Text #12
ID : 15
Format : UTF-8
Codec ID : S_TEXT/UTF8
Codec ID/Info : UTF-8 Plain Text
Duration : 1 h 19 min
Bit rate : 17 b/s
Count of elements : 401
Stream size : 9.96 KiB (0%)
Language : Finnish
Default : No
Forced : No

Text #13
ID : 16
Format : UTF-8
Codec ID : S_TEXT/UTF8
Codec ID/Info : UTF-8 Plain Text
Duration : 1 h 19 min
Bit rate : 30 b/s
Count of elements : 463
Stream size : 17.6 KiB (0%)
Language : Hebrew
Default : No
Forced : No

Text #14
ID : 17
Format : UTF-8
Codec ID : S_TEXT/UTF8
Codec ID/Info : UTF-8 Plain Text
Duration : 1 h 19 min
Bit rate : 16 b/s
Count of elements : 425
Stream size : 9.66 KiB (0%)
Language : Croatian
Default : No
Forced : No

Text #15
ID : 18
Format : UTF-8
Codec ID : S_TEXT/UTF8
Codec ID/Info : UTF-8 Plain Text
Duration : 1 h 19 min
Bit rate : 17 b/s
Count of elements : 441
Stream size : 10.2 KiB (0%)
Language : Hungarian
Default : No
Forced : No

Text #16
ID : 19
Format : UTF-8
Codec ID : S_TEXT/UTF8
Codec ID/Info : UTF-8 Plain Text
Duration : 1 h 19 min
Bit rate : 17 b/s
Count of elements : 453
Stream size : 10.3 KiB (0%)
Language : Indonesian
Default : No
Forced : No

Text #17
ID : 20
Format : UTF-8
Codec ID : S_TEXT/UTF8
Codec ID/Info : UTF-8 Plain Text
Duration : 1 h 19 min
Bit rate : 17 b/s
Count of elements : 430
Stream size : 10.4 KiB (0%)
Language : Italian
Default : No
Forced : No

Text #18
ID : 21
Format : UTF-8
Codec ID : S_TEXT/UTF8
Codec ID/Info : UTF-8 Plain Text
Duration : 1 h 19 min
Bit rate : 18 b/s
Count of elements : 432
Stream size : 10.5 KiB (0%)
Language : Japanese
Default : No
Forced : No

Text #19
ID : 22
Format : UTF-8
Codec ID : S_TEXT/UTF8
Codec ID/Info : UTF-8 Plain Text
Duration : 1 h 19 min
Bit rate : 23 b/s
Count of elements : 451
Stream size : 13.8 KiB (0%)
Language : Korean
Default : No
Forced : No

Text #20
ID : 23
Format : UTF-8
Codec ID : S_TEXT/UTF8
Codec ID/Info : UTF-8 Plain Text
Duration : 1 h 19 min
Bit rate : 18 b/s
Count of elements : 436
Stream size : 10.6 KiB (0%)
Language : Malay
Default : No
Forced : No

Text #21
ID : 24
Format : UTF-8
Codec ID : S_TEXT/UTF8
Codec ID/Info : UTF-8 Plain Text
Duration : 1 h 19 min
Bit rate : 17 b/s
Count of elements : 417
Stream size : 9.99 KiB (0%)
Language : Norwegian Bokmal
Default : No
Forced : No

Text #22
ID : 25
Format : UTF-8
Codec ID : S_TEXT/UTF8
Codec ID/Info : UTF-8 Plain Text
Duration : 1 h 19 min
Bit rate : 17 b/s
Count of elements : 407
Stream size : 10.0 KiB (0%)
Language : Dutch
Default : No
Forced : No

Text #23
ID : 26
Format : UTF-8
Codec ID : S_TEXT/UTF8
Codec ID/Info : UTF-8 Plain Text
Duration : 1 h 19 min
Bit rate : 16 b/s
Count of elements : 433
Stream size : 9.60 KiB (0%)
Language : Polish
Default : No
Forced : No

Text #24
ID : 27
Format : UTF-8
Codec ID : S_TEXT/UTF8
Codec ID/Info : UTF-8 Plain Text
Duration : 1 h 19 min
Bit rate : 17 b/s
Count of elements : 442
Stream size : 10.1 KiB (0%)
Title : Brasil
Language : Portuguese
Default : No
Forced : No

Text #25
ID : 28
Format : UTF-8
Codec ID : S_TEXT/UTF8
Codec ID/Info : UTF-8 Plain Text
Duration : 1 h 19 min
Bit rate : 17 b/s
Count of elements : 450
Stream size : 10.3 KiB (0%)
Language : Portuguese
Default : No
Forced : No

Text #26
ID : 29
Format : UTF-8
Codec ID : S_TEXT/UTF8
Codec ID/Info : UTF-8 Plain Text
Duration : 1 h 19 min
Bit rate : 20 b/s
Count of elements : 433
Stream size : 12.1 KiB (0%)
Language : Romanian
Default : No
Forced : No

Text #27
ID : 30
Format : UTF-8
Codec ID : S_TEXT/UTF8
Codec ID/Info : UTF-8 Plain Text
Duration : 1 h 19 min
Bit rate : 26 b/s
Count of elements : 403
Stream size : 15.5 KiB (0%)
Language : Russian
Default : No
Forced : No

Text #28
ID : 31
Format : UTF-8
Codec ID : S_TEXT/UTF8
Codec ID/Info : UTF-8 Plain Text
Duration : 1 h 19 min
Bit rate : 18 b/s
Count of elements : 392
Stream size : 10.6 KiB (0%)
Language : Swedish
Default : No
Forced : No

Text #29
ID : 32
Format : UTF-8
Codec ID : S_TEXT/UTF8
Codec ID/Info : UTF-8 Plain Text
Duration : 1 h 19 min
Bit rate : 48 b/s
Count of elements : 442
Stream size : 28.5 KiB (0%)
Language : Thai
Default : No
Forced : No

Text #30
ID : 33
Format : UTF-8
Codec ID : S_TEXT/UTF8
Codec ID/Info : UTF-8 Plain Text
Duration : 1 h 19 min
Bit rate : 18 b/s
Count of elements : 439
Stream size : 10.8 KiB (0%)
Language : Turkish
Default : No
Forced : No

Text #31
ID : 34
Format : UTF-8
Codec ID : S_TEXT/UTF8
Codec ID/Info : UTF-8 Plain Text
Duration : 1 h 19 min
Bit rate : 25 b/s
Count of elements : 441
Stream size : 15.1 KiB (0%)
Language : Vietnamese
Default : No
Forced : No

Text #32
ID : 35
Format : UTF-8
Codec ID : S_TEXT/UTF8
Codec ID/Info : UTF-8 Plain Text
Duration : 1 h 19 min
Bit rate : 21 b/s
Count of elements : 447
Stream size : 12.4 KiB (0%)
Title : Simplified
Language : Chinese
Default : No
Forced : No

Text #33
ID : 36
Format : UTF-8
Codec ID : S_TEXT/UTF8
Codec ID/Info : UTF-8 Plain Text
Duration : 1 h 19 min
Bit rate : 19 b/s
Count of elements : 443
Stream size : 11.6 KiB (0%)
Title : Traditional
Language : Chinese
Default : No
Forced : No

[collapse]
Download Link(s)

Download

Direct download files get automatically deleted after a month or so. Posted on : 03/07/2021

[collapse]
Magnet Link

Magnet

Sentinelle.2021.FRENCH.1080p.NF.WEBRip.DDP5.1.x264-MRCS- 1.91 GB

[collapse]

You may also like...

error: nah :p~