Shanghai Knights (2003)

PG-13 | 1h 54min | Action, Adventure, Comedy | 7 February 2003 (USA)

When a Chinese rebel murders Chon’s estranged father and escapes to England, Chon and Roy make their way to London with revenge on their minds.

Watch trailer

Media information

General
Format : Matroska
Format version : Version 4 / Version 2
File size : 701 MiB
Duration : 1 h 54 min
Overall bit rate : 857 kb/s
Movie name : Shanghai.Knights.2003.720p.BluRay.2CH.x265.HEVC
Encoded date : UTC 2018-07-07 14:13:19
Writing application : mkvmerge v24.0.0 (‘Beyond The Pale’) 32-bit
Writing library : libebml v1.3.6 + libmatroska v1.4.9

Video
ID : 1
Format : HEVC
Format/Info : High Efficiency Video Coding
Format profile : [email protected]@Main
Codec ID : V_MPEGH/ISO/HEVC
Duration : 1 h 54 min
Bit rate : 791 kb/s
Width : 1 280 pixels
Height : 544 pixels
Display aspect ratio : 2.35:1
Original display aspect ratio : 2.35:1
Frame rate mode : Constant
Frame rate : 23.976 (24000/1001) FPS
Color space : YUV
Chroma subsampling : 4:2:0
Bit depth : 8 bits
Bits/(Pixel*Frame) : 0.047
Stream size : 647 MiB (92%)
Default : Yes
Forced : No
Color range : Limited
Color primaries : BT.709
Transfer characteristics : BT.709
Matrix coefficients : BT.709

Audio
ID : 2
Format : AAC
Format/Info : Advanced Audio Codec
Format profile : HE-AAC / LC
Format settings : Explicit
Codec ID : A_AAC-2
Duration : 1 h 54 min
Bit rate : 64.0 kb/s
Channel(s) : 2 channels
Channel positions : Front: L R
Sampling rate : 48.0 kHz / 24.0 kHz
Frame rate : 23.438 FPS (1024 SPF)
Compression mode : Lossy
Delay relative to video : -4 ms
Stream size : 52.3 MiB (7%)
Default : Yes
Forced : No

Text
ID : 3
Format : UTF-8
Codec ID : S_TEXT/UTF8
Codec ID/Info : UTF-8 Plain Text
Duration : 1 h 51 min
Bit rate : 51 b/s
Count of elements : 1487
Stream size : 41.9 KiB (0%)
Default : Yes
Forced : No

[collapse]
Download Link(s)

Download

Direct download files get automatically deleted after a month or so. Posted on : 07/07/2018

[collapse]
Magnet Link

Magnet

Source : Shanghai.Knights.2003.1080p.BluRay.x264-BestHD-8.74 GB

[collapse]

You may also like...

error: nah :p~