Shock and Awe (2017)

R | 1h 30min | Biography, Drama, History | 13 July 2018 (USA)

A group of journalists covering George Bush’s planned invasion of Iraq in 2003 are skeptical of the president’s claim that Saddam Hussein has “weapons of mass destruction.”

Watch trailer

Media information

General
Format : Matroska
Format version : Version 4 / Version 2
File size : 720 MiB
Duration : 1 h 30 min
Overall bit rate : 1 109 kb/s
Movie name : Shock.and.Awe.2017.720p.WEB-DL.2CH.x265.HEVC
Encoded date : UTC 2018-07-13 14:41:47
Writing application : mkvmerge v25.0.0 (‘Prog Noir’) 32-bit
Writing library : libebml v1.3.6 + libmatroska v1.4.9

Video
ID : 1
Format : HEVC
Format/Info : High Efficiency Video Coding
Format profile : [email protected]@Main
Codec ID : V_MPEGH/ISO/HEVC
Duration : 1 h 30 min
Bit rate : 1 044 kb/s
Width : 1 280 pixels
Height : 688 pixels
Display aspect ratio : 1.85:1
Frame rate mode : Constant
Frame rate : 23.976 (24000/1001) FPS
Color space : YUV
Chroma subsampling : 4:2:0
Bit depth : 8 bits
Bits/(Pixel*Frame) : 0.049
Stream size : 678 MiB (94%)
Default : Yes
Forced : No

Audio
ID : 2
Format : AAC
Format/Info : Advanced Audio Codec
Format profile : HE-AAC / LC
Format settings : Explicit
Codec ID : A_AAC-2
Duration : 1 h 30 min
Bit rate : 62.9 kb/s
Channel(s) : 2 channels
Channel positions : Front: L R
Sampling rate : 48.0 kHz / 24.0 kHz
Frame rate : 23.438 FPS (1024 SPF)
Compression mode : Lossy
Delay relative to video : 23 ms
Stream size : 40.8 MiB (6%)
Language : English
Default : Yes
Forced : No

Text
ID : 3
Format : UTF-8
Codec ID : S_TEXT/UTF8
Codec ID/Info : UTF-8 Plain Text
Duration : 1 h 25 min
Bit rate : 103 b/s
Count of elements : 1665
Stream size : 64.7 KiB (0%)
Language : English
Default : Yes
Forced : No

[collapse]
Download Link(s)

Download

Direct download files get automatically deleted after a month or so. Posted on : 07/14/2018

[collapse]
Magnet Link

Magnet

Source : Shock.and.Awe.2017.1080p.AMZN.WEBRip.DDP5.1.x264-NTG-4.23 GB

[collapse]

Media information

General
Format : Matroska
Format version : Version 4 / Version 2
File size : 752 MiB
Duration : 1 h 30 min
Overall bit rate : 1 159 kb/s
Movie name : Shock.and.Awe.2018.720p.WEB-DL.2CH.x264.AVC
Encoded date : UTC 2018-07-13 10:02:46
Writing application : mkvmerge v25.0.0 (‘Prog Noir’) 32-bit
Writing library : libebml v1.3.6 + libmatroska v1.4.9

Video
ID : 3
Format : AVC
Format/Info : Advanced Video Codec
Format profile : [email protected]
Format settings : CABAC / 5 Ref Frames
Format settings, CABAC : Yes
Format settings, RefFrames : 5 frames
Codec ID : V_MPEG4/ISO/AVC
Duration : 1 h 30 min
Bit rate : 1 093 kb/s
Width : 1 280 pixels
Height : 690 pixels
Display aspect ratio : 1.85:1
Frame rate mode : Constant
Frame rate : 23.976 (24000/1001) FPS
Color space : YUV
Chroma subsampling : 4:2:0
Bit depth : 8 bits
Scan type : Progressive
Bits/(Pixel*Frame) : 0.052
Stream size : 709 MiB (94%)
Default : Yes
Forced : No
Color range : Limited
Color primaries : BT.709
Transfer characteristics : BT.709
Matrix coefficients : BT.709

Audio
ID : 1
Format : AAC
Format/Info : Advanced Audio Codec
Format profile : HE-AAC / LC
Format settings : Explicit
Codec ID : A_AAC-2
Duration : 1 h 30 min
Bit rate : 64.0 kb/s
Channel(s) : 2 channels
Channel positions : Front: L R
Sampling rate : 48.0 kHz / 24.0 kHz
Frame rate : 23.438 FPS (1024 SPF)
Compression mode : Lossy
Delay relative to video : 31 ms
Stream size : 41.6 MiB (6%)
Language : English
Default : Yes
Forced : No

Text
ID : 2
Format : UTF-8
Codec ID : S_TEXT/UTF8
Codec ID/Info : UTF-8 Plain Text
Duration : 1 h 25 min
Bit rate : 103 b/s
Count of elements : 1665
Stream size : 64.6 KiB (0%)
Language : English
Default : Yes
Forced : No

[collapse]
Download Link(s)

Download

Direct download files get automatically deleted after a month or so. Posted on : 07/13/2018

[collapse]
Magnet Link

Magnet

Source : Shock.and.Awe.2017.1080p.AMZN.WEBRip.DDP5.1.x264-NTG-4.23 GB

[collapse]

You may also like...

error: nah :p~