Sicario (2015)

R | 2h 1min | Action, Crime, Drama | 2 October 2015 (USA)

An idealistic FBI agent is enlisted by a government task force to aid in the escalating war against drugs at the border area between the U.S. and Mexico.

Watch trailer

Media information

General
Format : Matroska
Format version : Version 4
File size : 1.53 GiB
Duration : 2 h 1 min
Overall bit rate : 1 809 kb/s
Movie name : Sicario.2015.1080p.10bit.BluRay.7CH.x265.HEVC
Encoded date : UTC 2018-09-12 20:32:09
Writing application : mkvmerge v26.0.0 (‘In The Game’) 32-bit
Writing library : libebml v1.3.6 + libmatroska v1.4.9

Video
ID : 1
Format : HEVC
Format/Info : High Efficiency Video Coding
Format profile : Main [email protected]@Main
Codec ID : V_MPEGH/ISO/HEVC
Duration : 2 h 1 min
Bit rate : 1 500 kb/s
Width : 1 920 pixels
Height : 800 pixels
Display aspect ratio : 2.40:1
Frame rate mode : Constant
Frame rate : 23.976 (24000/1001) FPS
Color space : YUV
Chroma subsampling : 4:2:0
Bit depth : 10 bits
Bits/(Pixel*Frame) : 0.041
Stream size : 1.27 GiB (83%)
Default : Yes
Forced : No

Audio
ID : 2
Format : AAC LC
Codec ID : A_AAC-2
Duration : 2 h 1 min
Bit rate : 305 kb/s
Channel(s) : 7 channels
Channel(s)_Original : 8 channels
Channel layout : C L R Ls Rs Lb Rb LFE
Sampling rate : 48.0 kHz
Frame rate : 46.875 FPS (1024 SPF)
Compression mode : Lossy
Delay relative to video : 9 ms
Stream size : 265 MiB (17%)
Language : English
Default : Yes
Forced : No

Text #1
ID : 3
Format : UTF-8
Codec ID : S_TEXT/UTF8
Codec ID/Info : UTF-8 Plain Text
Duration : 1 h 55 min
Bit rate : 58 b/s
Count of elements : 991
Stream size : 49.4 KiB (0%)
Language : Arabic
Default : No
Forced : No

Text #2
ID : 4
Format : UTF-8
Codec ID : S_TEXT/UTF8
Codec ID/Info : UTF-8 Plain Text
Duration : 1 h 54 min
Bit rate : 35 b/s
Count of elements : 861
Stream size : 29.7 KiB (0%)
Language : Danish
Default : No
Forced : No

Text #3
ID : 5
Format : UTF-8
Codec ID : S_TEXT/UTF8
Codec ID/Info : UTF-8 Plain Text
Duration : 1 h 55 min
Bit rate : 34 b/s
Count of elements : 817
Stream size : 29.5 KiB (0%)
Language : Dutch
Default : No
Forced : No

Text #4
ID : 6
Format : UTF-8
Codec ID : S_TEXT/UTF8
Codec ID/Info : UTF-8 Plain Text
Duration : 1 h 50 min
Bit rate : 38 b/s
Count of elements : 989
Stream size : 31.0 KiB (0%)
Language : English
Default : Yes
Forced : No

Text #5
ID : 7
Format : UTF-8
Codec ID : S_TEXT/UTF8
Codec ID/Info : UTF-8 Plain Text
Duration : 1 h 50 min
Bit rate : 38 b/s
Count of elements : 989
Stream size : 31.1 KiB (0%)
Language : English
Default : No
Forced : No

Text #6
ID : 8
Format : UTF-8
Codec ID : S_TEXT/UTF8
Codec ID/Info : UTF-8 Plain Text
Duration : 1 h 55 min
Bit rate : 63 b/s
Count of elements : 1097
Stream size : 53.3 KiB (0%)
Language : Persian
Default : No
Forced : No

Text #7
ID : 9
Format : UTF-8
Codec ID : S_TEXT/UTF8
Codec ID/Info : UTF-8 Plain Text
Duration : 1 h 53 min
Bit rate : 45 b/s
Count of elements : 1047
Stream size : 37.5 KiB (0%)
Language : French
Default : No
Forced : No

Text #8
ID : 10
Format : UTF-8
Codec ID : S_TEXT/UTF8
Codec ID/Info : UTF-8 Plain Text
Duration : 1 h 52 min
Bit rate : 71 b/s
Count of elements : 902
Stream size : 58.3 KiB (0%)
Language : Greek
Default : No
Forced : No

Text #9
ID : 11
Format : UTF-8
Codec ID : S_TEXT/UTF8
Codec ID/Info : UTF-8 Plain Text
Duration : 1 h 51 min
Bit rate : 56 b/s
Count of elements : 991
Stream size : 46.3 KiB (0%)
Language : Hebrew
Default : No
Forced : No

Text #10
ID : 12
Format : UTF-8
Codec ID : S_TEXT/UTF8
Codec ID/Info : UTF-8 Plain Text
Duration : 1 h 52 min
Bit rate : 36 b/s
Count of elements : 1051
Stream size : 30.2 KiB (0%)
Language : Japanese
Default : No
Forced : No

Text #11
ID : 13
Format : UTF-8
Codec ID : S_TEXT/UTF8
Codec ID/Info : UTF-8 Plain Text
Duration : 1 h 52 min
Bit rate : 36 b/s
Count of elements : 879
Stream size : 29.8 KiB (0%)
Language : Spanish
Default : No
Forced : No

Text #12
ID : 14
Format : UTF-8
Codec ID : S_TEXT/UTF8
Codec ID/Info : UTF-8 Plain Text
Duration : 1 h 55 min
Bit rate : 45 b/s
Count of elements : 944
Stream size : 38.4 KiB (0%)
Language : Turkish
Default : No
Forced : No

[collapse]
Download Link(s)

Part01 Part02

Direct download files get automatically deleted after a month or so. Posted on : 09/13/2018

[collapse]
Magnet Link

Magnet

Source : Sicario (2015) (1080p Bluray x265 HEVC 10bit AAC 7.1-3.3 GB

[collapse]

Media information

General
Format : Matroska
Format version : Version 4
File size : 456 MiB
Duration : 2 h 1 min
Overall bit rate : 525 kb/s
Movie name : Sicario.2015.720p.BluRay.2CH.x265.HEVC
Encoded date : UTC 2018-09-13 10:05:03
Writing application : mkvmerge v26.0.0 (‘In The Game’) 32-bit
Writing library : libebml v1.3.6 + libmatroska v1.4.9

Video
ID : 1
Format : HEVC
Format/Info : High Efficiency Video Coding
Format profile : [email protected]@Main
Codec ID : V_MPEGH/ISO/HEVC
Duration : 2 h 1 min
Bit rate : 394 kb/s
Width : 1 280 pixels
Height : 534 pixels
Display aspect ratio : 2.40:1
Original display aspect ratio : 2.40:1
Frame rate mode : Constant
Frame rate : 23.976 (24000/1001) FPS
Color space : YUV
Chroma subsampling : 4:2:0
Bit depth : 8 bits
Bits/(Pixel*Frame) : 0.024
Stream size : 342 MiB (75%)
Default : Yes
Forced : No
Color range : Limited
Color primaries : BT.709
Transfer characteristics : BT.709
Matrix coefficients : BT.709

Audio
ID : 2
Format : AAC LC
Codec ID : A_AAC-2
Duration : 2 h 1 min
Bit rate : 127 kb/s
Channel(s) : 2 channels
Channel layout : L R
Sampling rate : 48.0 kHz
Frame rate : 46.875 FPS (1024 SPF)
Compression mode : Lossy
Delay relative to video : 9 ms
Stream size : 111 MiB (24%)
Title : Stereo
Language : English
Default : Yes
Forced : No

Text #1
ID : 3
Format : ASS
Codec ID : S_TEXT/ASS
Codec ID/Info : Advanced Sub Station Alpha
Duration : 1 h 50 min
Bit rate : 65 b/s
Count of elements : 989
Compression mode : Lossless
Stream size : 53.4 KiB (0%)
Language : English
Default : Yes
Forced : Yes

Text #2
ID : 4
Format : ASS
Codec ID : S_TEXT/ASS
Codec ID/Info : Advanced Sub Station Alpha
Duration : 1 h 55 min
Bit rate : 84 b/s
Count of elements : 991
Compression mode : Lossless
Stream size : 71.6 KiB (0%)
Language : Arabic
Default : No
Forced : No

Text #3
ID : 5
Format : ASS
Codec ID : S_TEXT/ASS
Codec ID/Info : Advanced Sub Station Alpha
Duration : 1 h 54 min
Bit rate : 58 b/s
Count of elements : 861
Compression mode : Lossless
Stream size : 49.0 KiB (0%)
Language : Danish
Default : No
Forced : No

Text #4
ID : 6
Format : ASS
Codec ID : S_TEXT/ASS
Codec ID/Info : Advanced Sub Station Alpha
Duration : 1 h 55 min
Bit rate : 56 b/s
Count of elements : 817
Compression mode : Lossless
Stream size : 47.7 KiB (0%)
Language : Dutch
Default : No
Forced : No

Text #5
ID : 7
Format : ASS
Codec ID : S_TEXT/ASS
Codec ID/Info : Advanced Sub Station Alpha
Duration : 1 h 50 min
Bit rate : 65 b/s
Count of elements : 989
Compression mode : Lossless
Stream size : 53.4 KiB (0%)
Language : English
Default : No
Forced : No

Text #6
ID : 8
Format : ASS
Codec ID : S_TEXT/ASS
Codec ID/Info : Advanced Sub Station Alpha
Duration : 1 h 55 min
Bit rate : 92 b/s
Count of elements : 1097
Compression mode : Lossless
Stream size : 78.0 KiB (0%)
Language : Persian
Default : No
Forced : No

Text #7
ID : 9
Format : ASS
Codec ID : S_TEXT/ASS
Codec ID/Info : Advanced Sub Station Alpha
Duration : 1 h 53 min
Bit rate : 73 b/s
Count of elements : 1047
Compression mode : Lossless
Stream size : 61.0 KiB (0%)
Language : French
Default : No
Forced : No

Text #8
ID : 10
Format : ASS
Codec ID : S_TEXT/ASS
Codec ID/Info : Advanced Sub Station Alpha
Duration : 1 h 52 min
Bit rate : 95 b/s
Count of elements : 902
Compression mode : Lossless
Stream size : 78.5 KiB (0%)
Language : Greek
Default : No
Forced : No

Text #9
ID : 11
Format : ASS
Codec ID : S_TEXT/ASS
Codec ID/Info : Advanced Sub Station Alpha
Duration : 1 h 51 min
Bit rate : 83 b/s
Count of elements : 991
Compression mode : Lossless
Stream size : 68.5 KiB (0%)
Default : No
Forced : No

Text #10
ID : 12
Format : ASS
Codec ID : S_TEXT/ASS
Codec ID/Info : Advanced Sub Station Alpha
Duration : 1 h 52 min
Bit rate : 65 b/s
Count of elements : 1051
Compression mode : Lossless
Stream size : 53.8 KiB (0%)
Language : Japanese
Default : No
Forced : No

Text #11
ID : 13
Format : ASS
Codec ID : S_TEXT/ASS
Codec ID/Info : Advanced Sub Station Alpha
Duration : 1 h 52 min
Bit rate : 60 b/s
Count of elements : 879
Compression mode : Lossless
Stream size : 49.7 KiB (0%)
Language : Spanish
Default : No
Forced : No

Text #12
ID : 14
Format : ASS
Codec ID : S_TEXT/ASS
Codec ID/Info : Advanced Sub Station Alpha
Duration : 1 h 55 min
Bit rate : 71 b/s
Count of elements : 944
Compression mode : Lossless
Stream size : 60.2 KiB (0%)
Language : Turkish
Default : No
Forced : No

[collapse]
Download Link(s)

Download

Direct download files get automatically deleted after a month or so. Posted on : 09/13/2018

[collapse]
Magnet Link

Magnet

Source : Sicario (2015) (1080p Bluray x265 HEVC 10bit AAC 7.1-3.3 GB

[collapse]

You may also like...

error: nah :p~