Sicario (2015)

R | 2h 1min | Action, Crime, Drama | 2 October 2015 (USA)

An idealistic FBI agent is enlisted by a government task force to aid in the escalating war against drugs at the border area between the U.S. and Mexico.

Watch trailer

Media information

General
Format : Matroska
Format version : Version 4
File size : 1.97 GiB
Duration : 2 h 1 min
Overall bit rate : 2 319 kb/s
Movie name : Sicario.2015.1080p.HQ.10bit.BluRay.8CH.x265.HEVC

Video
ID : 1
Format : HEVC
Format/Info : High Efficiency Video Coding
Format profile : Main [email protected]@Main
Codec ID : V_MPEGH/ISO/HEVC
Duration : 2 h 1 min
Bit rate : 1 854 kb/s
Width : 1 920 pixels
Height : 800 pixels
Display aspect ratio : 2.40:1
Frame rate mode : Constant
Frame rate : 23.976 (24000/1001) FPS
Color space : YUV
Chroma subsampling : 4:2:0
Bit depth : 10 bits
Bits/(Pixel*Frame) : 0.050
Stream size : 1.57 GiB (80%)
Default : Yes
Forced : No

Audio
ID : 2
Format : AAC LC
Codec ID : A_AAC-2
Duration : 2 h 1 min
Bit rate : 463 kb/s
Channel(s) : 8 channels
Channel layout : C L R Ls Rs Lw Rw LFE
Sampling rate : 48.0 kHz
Frame rate : 46.875 FPS (1024 SPF)
Compression mode : Lossy
Delay relative to video : 9 ms
Stream size : 402 MiB (20%)
Language : English
Default : Yes
Forced : No

Text #1
ID : 3
Format : UTF-8
Codec ID : S_TEXT/UTF8
Codec ID/Info : UTF-8 Plain Text
Duration : 1 h 50 min
Bit rate : 38 b/s
Count of elements : 989
Stream size : 31.1 KiB (0%)
Title : ENG
Language : English
Default : No
Forced : No

Text #2
ID : 4
Format : UTF-8
Codec ID : S_TEXT/UTF8
Codec ID/Info : UTF-8 Plain Text
Duration : 1 h 53 min
Bit rate : 44 b/s
Count of elements : 1245
Stream size : 37.3 KiB (0%)
Title : SDH
Language : English
Default : Yes
Forced : No

[collapse]
Download Link(s)

Download

[RE-UP]-Direct download files get automatically deleted after a month or so. Posted on : 03/13/2021

[collapse]
Magnet Link

Magnet

Sicario.2015.1080p.BluRay.REMUX.AVC.DTS-HD.MA.TrueHD.7.1.Atmos-35.91 GB

[collapse]

Media information

General
Format : Matroska
Format version : Version 4
File size : 456 MiB
Duration : 2 h 1 min
Overall bit rate : 525 kb/s
Movie name : Sicario.2015.720p.BluRay.2CH.x265.HEVC

Video
ID : 1
Format : HEVC
Format/Info : High Efficiency Video Coding
Format profile : [email protected]@Main
Codec ID : V_MPEGH/ISO/HEVC
Duration : 2 h 1 min
Bit rate : 394 kb/s
Width : 1 280 pixels
Height : 534 pixels
Display aspect ratio : 2.40:1
Original display aspect ratio : 2.40:1
Frame rate mode : Constant
Frame rate : 23.976 (24000/1001) FPS
Color space : YUV
Chroma subsampling : 4:2:0
Bit depth : 8 bits
Bits/(Pixel*Frame) : 0.024
Stream size : 342 MiB (75%)
Default : Yes
Forced : No
Color range : Limited
Color primaries : BT.709
Transfer characteristics : BT.709
Matrix coefficients : BT.709

Audio
ID : 2
Format : AAC LC
Codec ID : A_AAC-2
Duration : 2 h 1 min
Bit rate : 127 kb/s
Channel(s) : 2 channels
Channel layout : L R
Sampling rate : 48.0 kHz
Frame rate : 46.875 FPS (1024 SPF)
Compression mode : Lossy
Delay relative to video : 9 ms
Stream size : 111 MiB (24%)
Language : English
Default : Yes
Forced : No

Text #1
ID : 3
Format : ASS
Codec ID : S_TEXT/ASS
Duration : 1 h 50 min
Bit rate : 64 b/s
Count of elements : 989
Compression mode : Lossless
Stream size : 52.4 KiB (0%)
Language : English
Default : Yes
Forced : Yes

Text #2
ID : 4
Format : ASS
Codec ID : S_TEXT/ASS
Duration : 1 h 55 min
Bit rate : 83 b/s
Count of elements : 991
Compression mode : Lossless
Stream size : 70.6 KiB (0%)
Language : Arabic
Default : No
Forced : No

Text #3
ID : 5
Format : ASS
Codec ID : S_TEXT/ASS
Duration : 1 h 54 min
Bit rate : 57 b/s
Count of elements : 861
Compression mode : Lossless
Stream size : 48.1 KiB (0%)
Language : Danish
Default : No
Forced : No

Text #4
ID : 6
Format : ASS
Codec ID : S_TEXT/ASS
Duration : 1 h 55 min
Bit rate : 55 b/s
Count of elements : 817
Compression mode : Lossless
Stream size : 46.9 KiB (0%)
Language : Dutch
Default : No
Forced : No

Text #5
ID : 7
Format : ASS
Codec ID : S_TEXT/ASS
Duration : 1 h 50 min
Bit rate : 64 b/s
Count of elements : 989
Compression mode : Lossless
Stream size : 52.4 KiB (0%)
Language : English
Default : No
Forced : No

Text #6
ID : 8
Format : ASS
Codec ID : S_TEXT/ASS
Duration : 1 h 55 min
Bit rate : 90 b/s
Count of elements : 1097
Compression mode : Lossless
Stream size : 76.9 KiB (0%)
Language : Persian
Default : No
Forced : No

Text #7
ID : 9
Format : ASS
Codec ID : S_TEXT/ASS
Duration : 1 h 53 min
Bit rate : 72 b/s
Count of elements : 1047
Compression mode : Lossless
Stream size : 60.0 KiB (0%)
Language : French
Default : No
Forced : No

Text #8
ID : 10
Format : ASS
Codec ID : S_TEXT/ASS
Duration : 1 h 52 min
Bit rate : 94 b/s
Count of elements : 902
Compression mode : Lossless
Stream size : 77.6 KiB (0%)
Language : Greek
Default : No
Forced : No

Text #9
ID : 11
Format : ASS
Codec ID : S_TEXT/ASS
Duration : 1 h 51 min
Bit rate : 82 b/s
Count of elements : 991
Compression mode : Lossless
Stream size : 67.5 KiB (0%)
Default : No
Forced : No

Text #10
ID : 12
Format : ASS
Codec ID : S_TEXT/ASS
Duration : 1 h 52 min
Bit rate : 64 b/s
Count of elements : 1051
Compression mode : Lossless
Stream size : 52.7 KiB (0%)
Language : Japanese
Default : No
Forced : No

Text #11
ID : 13
Format : ASS
Codec ID : S_TEXT/ASS
Duration : 1 h 52 min
Bit rate : 59 b/s
Count of elements : 879
Compression mode : Lossless
Stream size : 48.8 KiB (0%)
Language : Spanish
Default : No
Forced : No

Text #12
ID : 14
Format : ASS
Codec ID : S_TEXT/ASS
Duration : 1 h 55 min
Bit rate : 70 b/s
Count of elements : 944
Compression mode : Lossless
Stream size : 59.3 KiB (0%)
Language : Turkish
Default : No
Forced : No

[collapse]
Download Link(s)

Download

[RE-UP]-Direct download files get automatically deleted after a month or so. Posted on : 03/13/2021

[collapse]
Magnet Link

Magnet

Sicario.2015.1080p.BluRay.REMUX.AVC.DTS-HD.MA.TrueHD.7.1.Atmos-35.91 GB

[collapse]

You may also like...

error: nah :p~